Today is a free download without charge Download

Тайны следствия / Сезон: 12 / Серии: 1 из 12 (Рената Грицкова) [2012, Детектив, драма, криминал, HDTVRip]

Reply to topic
 
Author
Message

Omen ®

Longevity: 9 years 1 month

Posts: 181086

Торрент-статистика

Post 19-Mar-2013 06:05

[Quote]

Тайны следствия
Год выпуска: 2012
Производство: Россия, Форвард-Фильм, Студия
Жанр: Детектив, драма, криминал
Продолжительность: 1 х ~ 00:42:00
Субтитры: нет
Режиссёр: Рената Грицкова
В ролях: Анна Ковальчук, Вячеслав Захаров, Игорь Николаев, Александр Новиков, Игорь Григорьев, Ольга Павловец, Мирослав Малич, Злата Ильченко, Игорь Соплин, Александр Шпилько, Андрей Шарков, Светлана Щедрина, Юлия Яковлева, Олег Алмазов, Дмитрий Поднозов, Александр Овчинников
Описание: Мария Швецова продолжает трудиться в районном следственном комитете под руководством Николая Филонова. Каждый день становится для неё настоящим испытанием, ведь ей приходится бороться не только и не столько с преступностью, сколько с косностью и откровенным саботажем реальной следственной работы со стороны руководства. К счастью, коллеги и друзья не оставляют Машу в трудную минуту. Новый следователь Колонкова, с которой Швецова уже успела подружиться, Кораблёв, вернувшийся на службу в полицию, и неизменный друг и учитель Ковин всегда помогут ей в любом самом сложном деле. Кроме того, дома её ждёт дружная семья, вновь пополнившаяся вернувшимся из Англии старшим сыном Швецовой Костиком.
Сэмпл
Качество: HDTVRip
Формат: AVI
Видео кодек: XviD
Аудио кодек: AC3
Видео: 720x400 (1.80:1), 25 fps, XviD build 50 ~1548 kbps avg, 0.22 bit/pixel
Аудио: 48 kHz, AC3 Dolby Digital, 2/0 (L,R) ch, ~192.00 kbps avg
Релиз от:

MI

General
Complete name : V:\ftp4\Videos\Tayny.sledstviya-12.2012.SATRip-files-x\Tayny.sledstviya-12.01.seriya.2012.XviD.HDTVRip.Files-x.avi
Format : AVI
Format/Info : Audio Video Interleave
File size : 549 MiB
Duration : 43mn 53s
Overall bit rate : 1 750 Kbps
Writing application : VirtualDubMod 1.5.10.3 | www.virtualdub-fr.org || (build 2550/release)
Writing library : VirtualDubMod build 2550/release
Video
ID : 0
Format : MPEG-4 Visual
Format profile : Advanced [email protected]
Format settings, BVOP : 1
Format settings, QPel : No
Format settings, GMC : No warppoints
Format settings, Matrix : Default (H.263)
Codec ID : XVID
Codec ID/Hint : XviD
Duration : 43mn 53s
Bit rate : 1 548 Kbps
Width : 720 pixels
Height : 400 pixels
Display aspect ratio : 16:9
Frame rate : 25.000 fps
Color space : YUV
Chroma subsampling : 4:2:0
Bit depth : 8 bits
Scan type : Progressive
Compression mode : Lossy
Bits/(Pixel*Frame) : 0.215
Stream size : 486 MiB (88%)
Writing library : XviD 1.2.1 (UTC 2008-12-04)
Audio
ID : 1
Format : AC-3
Format/Info : Audio Coding 3
Mode extension : CM (complete main)
Format settings, Endianness : Big
Codec ID : 2000
Duration : 43mn 53s
Bit rate mode : Constant
Bit rate : 192 Kbps
Channel(s) : 2 channels
Channel positions : Front: L R
Sampling rate : 48.0 KHz
Bit depth : 16 bits
Compression mode : Lossy
Stream size : 60.3 MiB (11%)
Alignment : Split accross interleaves
Interleave, duration : 40 ms (1.00 video frame)
Interleave, preload duration : 500 ms

Скриншоты

Внимание! Раздача ведётся путём добавления новых серий!

Внимание! Раздача ведётся путём добавления новых серий
Внимание! Раздача ведётся путём добавления новых серий; при каждом добавлении создётся новый торрент.
Чтобы начать докачку новой серии, пользователям необходимо сделать следующее:
1) остановить скачивание
2) удалить старый торрент у себя из клиента (старые серии удалять не надо)
3) скачать новый торрент и запустить его у себя в клиенте вместо старого, при этом указать клиенту путь в старую папку куда и должно происходить скачивание новых серий.
Ваш клиент при этом должен произвести хеширование (проверку) старой папки (если не производит сам - помогите ему сделать это), и будет докачивать только те серии которых у вас ещё нет. Старые серии при этом не удаляются, а продолжают раздаваться!
Eсли вы уже удалили старые серии, то предотвратить повторную закачку старых серий можно, отжав галочку в соответствовавших местах при запуске нового торрента.
Other forum [Profile] [PM]
Similar theme
Forum Topic Author Torrent Replies Last Post
./templates/default/images/folder_dl.gif Отечественные cериалы Тайный город / Сезон: 1 / Серии: 1-8 из 8 (Александр Мохов) [2014 г., фэнтези,, DVDRip] Omen
1 | 0

0 | 1122

6

2014-09-30 11:00
Omen Latest
./templates/default/images/folder_dl.gif Приключения и квесты Secrets of the Dark: The Flower of Shadow Collector\'s Edition / Тайны Тьмы: Цветок Теней. Коллекционное издание [P] [RUS / ENG] (2014) Omen
1 | 0

0 | 2226

23

2015-06-11 12:04
Omen Latest
Display posts from previous:    
Reply to topic

The time now is: Today 05:08

All times are GMT + 3 Hours



You cannot post new topics in this forum
You cannot reply to topics in this forum
You cannot edit your posts in this forum
You cannot delete your posts in this forum
You cannot vote in polls in this forum
You cannot attach files in this forum
You cannot download files in this forum