Today is a free download without charge Download

Стена секретов / Таинственная стена / Wall of Secrets (Франсуа Жинграс / Francois Gingras) [2003, Канада, США, Триллер, детектив, HDTV 1080i] DVO (ТПО Ред Медиа)

Reply to topic
 
Author
Message

Omen ®

Longevity: 8 years 5 months

Posts: 181087

Торрент-статистика

Post 19-Mar-2013 06:05

[Quote]

Стена секретов / Таинственная стена / Wall of Secrets
Страна: Канада, США
Студия: Hive Film Production Inc., JB Media
Жанр: Триллер, детектив
Год выпуска: 2003
Продолжительность: 01:31:38
Перевод: Профессиональный (двухголосый закадровый) ТПО Ред Медиа
Cубтитры: нет
Оригинальная аудиодорожка: нет
Режиссер: Франсуа Жинграс / Francois Gingras
В ролях: Николь Эггерт, Дин МакДермотт, Брюс Грэй, Стивен МакХэтти, Конрад Пла, Мэттью Бойлэн, Сара Аллен, Mary Morter, Стив Адамс, Сьюзэн Гловер
Описание: Марк, работая в одной из фирм в Сиэтле, неожиданно получает очень выгодное предложение - переехать в Чикаго, где он получает роскошные апартаменты с прекрасным видом в жилом районе города. Марк переезжает со своей женой Пэйдж на новое место жительства.
После вселения в эту квартиру Пэйдж стала ощущать, что за ней кто-то подсматривает. Одна пожилая женщина посоветовала ей не жить здесь, она сказала, что квартира проклята и в ней кто-то умер. На следующий день эту женщину нашли мертвой. Увидев однажды незнакомца в квартире, Пэйдж вызывает полицию, но та не торопится ей помочь. Неожиданно Пэйдж обнаруживает, что в стене что-то спрятано, разбивает и… обнаруживает множество камер, которые находились не только в стенах, но и на потолке, за зеркалами, в каждой комнате. Зачем? Почему? Кому это надо? Пэйдж пытается уничтожить их, но ей мешают…

Тип релиза: HDTV 1080i
Контейнер: TS
Видео: AVC 1920x1080 (16:9) 25.0fps Bit rate 4833Kbps
Аудио: Dolby AC3 48000Hz 2ch 192 Kbps

MediaInfo

General
ID : 1
Complete name : E:\torrent\Стена секретов.ts
Format : MPEG-TS
File size : 3.38 GiB
Duration : 1h 31mn
Overall bit rate : 5 288 Kbps
Maximum Overall bit rate : 35.5 Mbps
Video
ID : 4113 (0x1011)
Menu ID : 1 (0x1)
Format : AVC
Format/Info : Advanced Video Codec
Format profile : [email protected]
Format settings, CABAC : Yes
Format settings, ReFrames : 3 frames
Duration : 1h 31mn
Bit rate mode : Variable
Bit rate : 4 833 Kbps
Maximum bit rate : 40.0 Mbps
Width : 1 920 pixels
Height : 1 080 pixels
Display aspect ratio : 16:9
Frame rate : 25.000 fps
Standard : Component
Color space : YUV
Chroma subsampling : 4:2:0
Bit depth : 8 bits
Scan type : Interlaced
Scan order : Top Field First
Bits/(Pixel*Frame) : 0.093
Stream size : 3.09 GiB (91%)
Color primaries : BT.709-5, BT.1361, IEC 61966-2-4, SMPTE RP177
Transfer characteristics : BT.709-5, BT.1361
Matrix coefficients : BT.709-5, BT.1361, IEC 61966-2-4 709, SMPTE RP177
Audio
ID : 4352 (0x1100)
Menu ID : 1 (0x1)
Format : AC-3
Format/Info : Audio Coding 3
Mode extension : CM (complete main)
Duration : 1h 31mn
Bit rate mode : Constant
Bit rate : 192 Kbps
Channel(s) : 2 channels
Channel positions : Front: L R
Sampling rate : 48.0 KHz
Bit depth : 16 bits
Stream size : 126 MiB (4%)

Скриншот с названием фильма

Скриншоты

Other forum [Profile] [PM]
Display posts from previous:    
Reply to topic

The time now is: Today 02:02

All times are GMT + 3 Hours



You cannot post new topics in this forum
You cannot reply to topics in this forum
You cannot edit your posts in this forum
You cannot delete your posts in this forum
You cannot vote in polls in this forum
You cannot attach files in this forum
You cannot download files in this forum