Today is a free download without charge Download

Безумно верная жена / Committed (Лиза Крюгер / Lisa Krueger) [2000, США, драма, комедия, BDRip 720p] DVO + Original Eng

Reply to topic
 
Author
Message

Omen ®

Longevity: 8 years 5 months

Posts: 181087

Торрент-статистика

Post 18-Mar-2013 21:52

[Quote]

Безумно верная жена / Committed- Страна: США
Жанр: драма, комедия
Год выпуска: 2000
Продолжительность: 01:37:51
Перевод: Профессиональный (двухголосый закадровый)
Cубтитры: нет
Оригинальная аудиодорожка: английский-Режиссер: Лиза Крюгер / Lisa Krueger
В ролях: Хезер Грэм /Heather Graham/, Кейси Эффлек /Casey Affleck/, Люк Уилсон /Luke Wilson/, Клеа ДюВолл /Clea DuVall/, Дилан Бейкер /Dylan Baker/, Патриция Веласкес /Patricia Velazquez/-Описание: Существует несколько способов вернуть сбежавшего мужа. Среди них есть мягкие, хитрые, отчаянные и жестокие…Когда Карл исчез в неизвестном направлении, удивленная Джолин не сомневалась, что может спасти их брак!
Она была уверена, что сделает это! Что найдет Карла, где бы он ни был и вернет. Но пока еще не знала — как…- -Тип релиза: BDRip 720p
Контейнер: MKV
Видео: x.264, 1280x696, 23.976 fps, 4884 Kbps
Аудио 1: AC3, 48000 Hz, 384 Kbps, 6 channels - DVO
Аудио 2: DTS, 48000 Hz, 1510 Kbps, 2 channels - ENG-

Скриншоты



Резервные скриншоты




-

MediaInfo

Format : MatroskaFormat version : Version 4 / Version 2File size : 4.63 GiBDuration : 1h 37mnOverall bit rate : 6 777 KbpsMovie name : Безумно верная жена / Committed (2000) BDRip 720pEncoded date : UTC 2013-03-18 15:53:51Writing application : mkvmerge v6.1.0 ('Old Devil') built on Mar 2 2013 14:32:37Writing library : libebml v1.3.0 + libmatroska v1.4.0Attachment : Yes
VideoID : 1Format : AVCFormat/Info : Advanced Video CodecFormat profile : [email protected] settings, CABAC : YesFormat settings, ReFrames : 5 framesCodec ID : V_MPEG4/ISO/AVCDuration : 1h 37mnBit rate : 4 884 KbpsWidth : 1 280 pixelsHeight : 696 pixelsDisplay aspect ratio : 16:9Frame rate : 23.976 fpsColor space : YUVChroma subsampling : 4:2:0Bit depth : 8 bitsScan type : ProgressiveBits/(Pixel*Frame) : 0.229Stream size : 3.25 GiB (70%)Writing library : x264 core 130 r2273 b3065e6Encoding settings : cabac=1 / ref=5 / deblock=1:0:0 / analyse=0x3:0x113 / me=umh / subme=8 / psy=1 / psy_rd=1.00:0.00 / mixed_ref=1 / me_range=16 / chroma_me=1 / trellis=1 / 8x8dct=1 / cqm=0 / deadzone=21,11 / fast_pskip=1 / chroma_qp_offset=-2 / threads=12 / lookahead_threads=2 / sliced_threads=0 / nr=0 / decimate=1 / interlaced=0 / bluray_compat=0 / constrained_intra=0 / bframes=3 / b_pyramid=2 / b_adapt=2 / b_bias=0 / direct=3 / weightb=1 / open_gop=0 / weightp=2 / keyint=240 / keyint_min=24 / scenecut=40 / intra_refresh=0 / rc_lookahead=50 / rc=2pass / mbtree=1 / bitrate=4884 / ratetol=1.0 / qcomp=0.60 / qpmin=0 / qpmax=69 / qpstep=4 / cplxblur=20.0 / qblur=0.5 / ip_ratio=1.40 / aq=1:1.00Language : EnglishDefault : YesForced : No
Audio #1ID : 2Format : AC-3Format/Info : Audio Coding 3Mode extension : CM (complete main)Codec ID : A_AC3Duration : 1h 37mnBit rate mode : ConstantBit rate : 384 KbpsChannel(s) : 6 channelsChannel positions : Front: L C R, Side: L R, LFESampling rate : 48.0 KHzBit depth : 16 bitsCompression mode : LossyStream size : 269 MiB (6%)Language : RussianDefault : YesForced : No
Audio #2ID : 3Format : DTSFormat/Info : Digital Theater SystemsCodec ID : A_DTSDuration : 1h 37mnBit rate mode : ConstantBit rate : 1 510 KbpsChannel(s) : 2 channelsChannel positions : Front: L RSampling rate : 48.0 KHzBit depth : 24 bitsCompression mode : LossyStream size : 1.03 GiB (22%)Language : EnglishDefault : NoForced : No
Menu00:00:00.000 : en:00:00:00.00000:09:49.714 : en:00:09:49.71400:15:01.859 : en:00:15:01.85900:23:31.243 : en:00:23:31.24300:33:16.036 : en:00:33:16.03600:40:09.407 : en:00:40:09.40700:45:51.207 : en:00:45:51.20700:54:11.415 : en:00:54:11.41501:03:55.248 : en:01:03:55.24801:12:05.696 : en:01:12:05.69601:18:32.917 : en:01:18:32.91701:29:42.544 : en:01:29:42.544
Other forum [Profile] [PM]
Display posts from previous:    
Reply to topic

The time now is: Today 11:03

All times are GMT + 3 Hours



You cannot post new topics in this forum
You cannot reply to topics in this forum
You cannot edit your posts in this forum
You cannot delete your posts in this forum
You cannot vote in polls in this forum
You cannot attach files in this forum
You cannot download files in this forum