Today is a free download without charge Download

Kreator - Live At Agava Club, Ufa (17.03.2013) [2013, Thrash Metal, HDCam]

Reply to topic
 
Author
Message

Omen ®

Longevity: 8 years 3 months

Posts: 181087

Торрент-статистика

Post 18-Mar-2013 21:52

[Quote]

Kreator - Live At Agava Club, Ufa (17.03.2013)
Жанр: Thrash Metal
Продолжительность: 68 минут
Год выпуска: 2013
Описание: Концерт Kreator в уфимском клубе "Агава" 17.03.2013. Точнее бОльшая его часть.
Доп. информация: К качеству изображения и съемки прошу отнестись с пониманием - там был адский ад:)
Качество: HDCam
Контейнер: MP4
Видео кодек: H.264
Аудио кодек: AAC
Видео: Advanced Video Coding, 1920x1080 pixels, 10.6 Mbps, 29.970 fps
Аудио: Advanced Audio Codec, 64.0 Kbps, 48.0 KHz, 1 channel

Отчёт MediaInfo / BDInfo

GeneralComplete name : E:\2013-03-17_Kreator\105_0710.MP4Format : MPEG-4Format profile : JVTCodec ID : avc1File size : 438 MiBDuration : 5mn 44sOverall bit rate mode : VariableOverall bit rate : 10.7 MbpsMovie name/More : KODAK PLAYFULL Video Camera, Ze1Encoded date : UTC 2013-03-17 20:36:51Tagged date : UTC 2013-03-17 20:36:51Origin : Digital CameraAMBA :
VideoID : 1Format : AVCFormat/Info : Advanced Video CodecFormat profile : [email protected] settings, CABAC : YesFormat settings, ReFrames : 4 framesCodec ID : avc1Codec ID/Info : Advanced Video CodingDuration : 5mn 44sBit rate mode : VariableBit rate : 10.6 MbpsMaximum bit rate : 49.9 MbpsWidth : 1 920 pixelsHeight : 1 080 pixelsDisplay aspect ratio : 16:9Frame rate mode : ConstantFrame rate : 29.970 fpsColor space : YUVChroma subsampling : 4:2:0Bit depth : 8 bitsScan type : ProgressiveBits/(Pixel*Frame) : 0.170Stream size : 435 MiB (99%)Title : Ambarella AVC / Ambarella AVCLanguage : EnglishEncoded date : UTC 2013-03-17 20:36:51Tagged date : UTC 2013-03-17 20:36:51
AudioID : 2Format : AACFormat/Info : Advanced Audio CodecFormat profile : LCCodec ID : 40Duration : 5mn 44sBit rate mode : VariableBit rate : 64.0 KbpsChannel(s) : 1 channelChannel positions : Front: CSampling rate : 48.0 KHzCompression mode : LossyStream size : 2.63 MiB (1%)Title : Ambarella AAC / Ambarella AACLanguage : EnglishEncoded date : UTC 2013-03-17 20:36:51Tagged date : UTC 2013-03-17 20:36:51

Скриншоты





Сетлист

Mars Mantra
Phantom Antichrist
Civilization Collapse
Your Heaven, My Hell
Extreme Agression
People Of The Lie
Death To The World
Endless Pain
Pleasure To Kill
Violent Revolution
United In Hate
Betrayer
Flag Of Hate
Tormentor
Other forum [Profile] [PM]
Display posts from previous:    
Reply to topic

The time now is: Today 14:18

All times are GMT + 3 Hours



You cannot post new topics in this forum
You cannot reply to topics in this forum
You cannot edit your posts in this forum
You cannot delete your posts in this forum
You cannot vote in polls in this forum
You cannot attach files in this forum
You cannot download files in this forum