Today is a free download without charge Download

The Sound City Players - Jimmy Kimmel Live (05.03.2013) [2013, Rock, HDTVRip 720p]

Reply to topic
 
Author
Message

Omen ®

Longevity: 8 years 3 months

Posts: 181087

Торрент-статистика

Post 18-Mar-2013 21:52

[Quote]

The Sound City Players - Jimmy Kimmel Live (05.03.2013)- Жанр: Rock
Продолжительность: 00:07:31
Год выпуска: 2013-Описание: Выступление Дэйва Грола и Sound City Players 5 марта на популярном телешоу Джимми Киммела в Лос-Анджелесе.
Sound City Players - супергруппа, которую Грол собрал в конце 2012 года для продвижения своего режиссерского дебюта - документальной ленты "Sound City". В состав группы входят музыканты: сам Дэйв Грол (Foo Fighters, Nirvana), Крист Новоселич (Nirvana), Ли Уинг (Fear), Джош Хомм (Queens of The Stone Age), Джон Фогерти (Creedence Clearwater Revival), Рик Спрингфилд и др.
Треклист:
1. John Fogerty & The Sound City Players - Fortunate Son
2. Rick Springfield & Sound City Players - The Man That Never Was-Качество: HDTVRip 720p
Контейнер: MKV
Видео кодек: H.264
Аудио кодек: AC3
Видео: 1280x720, 16:9, 8882 Kbps, 59.940 fps
Аудио: 320 Kbps, 6 ch, 48.0 KHz

Отчёт MediaInfo / BDInfo

GeneralUnique ID : 199176327065486922703497567375171874458 (0x95D7F71AADFBA8689DF605FEFECD6E9A)Complete name : E:\The.Sound.City.Players.Jimmy.Kimmel.720p.hdtv.x264.mkvFormat : MatroskaFormat version : Version 4 / Version 2File size : 506 MiBDuration : 7mn 31sOverall bit rate : 9 389 KbpsEncoded date : UTC 2013-03-18 12:57:35Writing application : mkvmerge v6.1.0 ('Old Devil') built on Mar 2 2013 14:32:37Writing library : libebml v1.3.0 + libmatroska v1.4.0
VideoID : 1Format : AVCFormat/Info : Advanced Video CodecFormat profile : [email protected] settings, CABAC : YesFormat settings, ReFrames : 5 framesCodec ID : V_MPEG4/ISO/AVCDuration : 7mn 31sBit rate : 8 882 KbpsWidth : 1 280 pixelsHeight : 720 pixelsDisplay aspect ratio : 16:9Frame rate mode : ConstantFrame rate : 60.000 fpsOriginal frame rate : 59.940 fpsColor space : YUVChroma subsampling : 4:2:0Bit depth : 8 bitsScan type : ProgressiveBits/(Pixel*Frame) : 0.161Stream size : 478 MiB (95%)Language : EnglishDefault : NoForced : No
AudioID : 2Format : AC-3Format/Info : Audio Coding 3Mode extension : CM (complete main)Format settings, Endianness : BigCodec ID : A_AC3Duration : 7mn 31sBit rate mode : ConstantBit rate : 320 KbpsChannel(s) : 6 channelsChannel positions : Front: L C R, Side: L R, LFESampling rate : 48.0 KHzBit depth : 16 bitsCompression mode : LossyDelay relative to video : 30msStream size : 17.2 MiB (3%)Default : YesForced : No

Скриншоты

Other forum [Profile] [PM]
Display posts from previous:    
Reply to topic

The time now is: Today 09:25

All times are GMT + 3 Hours



You cannot post new topics in this forum
You cannot reply to topics in this forum
You cannot edit your posts in this forum
You cannot delete your posts in this forum
You cannot vote in polls in this forum
You cannot attach files in this forum
You cannot download files in this forum