Today is a free download without charge Download

Не уходи / Серии: 1-4 из 4 (Алексей Карелин) [2012, мелодрама, SATRip]

Reply to topic
 
Author
Message

Meshanik ®

Gender:

Longevity: 9 years 6 months

Posts: 3866

Location: Los Angeles

Торрент-статистика

Post 18-Mar-2013 20:26

[Quote]

Не уходи -Год выпуска: 2012
Производство: Россия, студия"Паламеда"
Жанр: мелодрама
Продолжительность: 00:43:35
Режиссёр: Алексей Карелин-В ролях: Марина Денисова, Андрей Фролов, Святослав Астрамович, Наталья Гудкова, Анатолий Котенёв, Николай Лукинский-Описание: Татьяна - красивая женщина и успешный врач. У нее есть муж Роман, есть сын Димка. Но счастливая жизнь рушится в одну секунду, когда Димка получает тяжелейшую травму. Теперь он может передвигаться только на коляске. Виноват в этом недосмотревший за мальчиком тренер Кирилл. Теперь в семье Татьяны и Романа царит тяжесть беды. Татьяна думает только об одном: как поставить сына на ноги. Роман задыхается дома. Глотком свежего воздуха для него становится случайная встреча с его первой любовью Людмилой...-Доп.информация:
Любая реклама ОТСУТСТВУЕТ!-Сэмпл-Качество: SATRip
Формат: AVI
Видео кодек: XviD
Аудио кодек: MP3
Видео: 704x400 (1.76:1), 25 fps, XviD build 50 ~1600 kbps avg, 0.23 bit/pixel
Аудио: 48 kHz, MPEG Layer 3, 2 ch, ~128.00 kbps avg

MI

ОбщееПолное имя : D:\Раздачи\Ne.uhodi.2012.SATRip\Ne.uhodi.01.2012.SATRip.aviФормат : AVIФормат/Информация : Audio Video InterleaveРазмер файла : 541 МбайтПродолжительность : 43 м.Общий поток : 1737 Кбит/секПрограмма кодирования : VirtualDubMod 1.5.10.1 (build 2366/release)Библиотека кодирования : VirtualDubMod build 2366/release
ВидеоИдентификатор : 0Формат : MPEG-4 VisualПрофиль формата : [email protected]Параметр BVOP формата : НетПараметр QPel формата : НетПараметр GMC формата : Без точки переходаПараметр матрицы формата : Default (H.263)Идентификатор кодека : XviDИдентификатор кодека/Подсказка : XviDПродолжительность : 43 м.Битрейт : 1599 Кбит/секШирина : 704 пикселяВысота : 400 пикселейСоотношение сторон : 16:9Частота кадров : 25,000 кадров/секЦветовое пространство : YUVСубдискретизация насыщенности : 4:2:0Битовая глубина : 8 битТип развёртки : ПрогрессивнаяМетод сжатия : С потерямиБит/(Пиксели*Кадры) : 0.227Размер потока : 498 Мбайт (92%)Библиотека кодирования : XviD 1.2.1 (UTC 2008-12-04)
АудиоИдентификатор : 1Формат : MPEG AudioВерсия формата : Version 1Профиль формата : Layer 3Режим : Joint stereoРасширение режима : MS StereoИдентификатор кодека : 55Идентификатор кодека/Подсказка : MP3Продолжительность : 43 м.Вид битрейта : ПостоянныйБитрейт : 128 Кбит/секКаналы : 2 каналаЧастота : 48,0 КГцМетод сжатия : С потерямиЗадержка видео : 18 мс.Размер потока : 39,9 Мбайт (7%)Выравнивание : Разделение по промежуткамПродолжительность промежутка : 40 мс. (1,00 видеокадр)Время предзагрузки промежутка : 500 мс.Библиотека кодирования : LAME3.98.2

Скриншоты

         

Внимание! Раздача ведётся путём добавления новых серий. Описание обновления торрента:

Внимание! Раздача ведётся путём добавления новых серий; при каждом добавлении создётся новый торрент. Чтобы начать докачку новой серии, пользователям необходимо сделать следующее:
(1) остановить скачивание,
(2) удалить старый торрент у себя из клиента (старые серии удалять не надо),
(3) скачать новый торрент и запустить его у себя в клиенте вместо старого, при этом указать клиенту путь в старую папку куда и должно происходить скачивание новых серий.
Ваш клиент при этом должен произвести хеширование (проверку) старой папки (если не производит сам - помогите ему сделать это), и будет докачивать только те серии которых у вас ещё нет. Старые серии при этом не удаляются, а продолжают раздаваться!
Eсли вы уже удалили старые серии, то предотвратить повторную закачку старых серий можно, отжав галочку в соответсвующих местах при запуске нового торрента. По возможности, желательно не удалять старые серии как можно дольше чтобы релизёр не столько продолжал раздавать старые серии, а смог сконцентрироваться на новых
Other forum [Profile] [PM]
Display posts from previous:    
Reply to topic

The time now is: Today 06:13

All times are GMT + 3 Hours



You cannot post new topics in this forum
You cannot reply to topics in this forum
You cannot edit your posts in this forum
You cannot delete your posts in this forum
You cannot vote in polls in this forum
You cannot attach files in this forum
You cannot download files in this forum