Today is a free download without charge Download

Discovery: 80 способов обогнуть земной шар (10 серий) / Discovery: Around the World in 80 Ways (2012) SATRip [H.264]

Reply to topic
 
Author
Message

UndegraundMen ®

Longevity: 7 years 7 months

Posts: 25145

Торрент-статистика

Post 18-Mar-2013 15:22

[Quote]

Discovery: 80 способов обогнуть земной шар (10 серий)/ Discovery: Around the World in 80 Ways (2012) SATRip [H.264]- Русское название: Discovery: 80 способов обогнуть земной шар
Оригинальное название: Discovery: Around the World in 80 Ways
Режиссер / Телекомпания: Discovery Channel
Год выпуска: 2012
Жанр: реальное ТВ
Описание:
Как можно добраться из одного города в другой? «На машине», — скажут одни. «На самолете или поезде», — скажут другие. Однако Дэннис Андерсон и Роб Мариано привыкли мыслить вне общепринятых стандартов. В новой программе «80 способов обогнуть земной шар» на Discovery Channel они опробуют десятки самых экстравагантных средств передвижения, работая в команде или время от времени соревнуясь друг с другом.
Продолжительность: 10 серий х 00:45:00
Перевод: Одноголосый закадровый, профессиональный
Видеокодек: AVC/H.264
Битрейт видео: ~1232 Кбит/сек
Размер кадра: 720x408
Качество видео: SATRip
Аудиокодек: MP3, 2 канала
Битрейт аудио: 256 Кбит/сек

Описание серий

1 выпуск Озеро Титикака
В первой части путешествия наши герои: Дэннис Андерсон и Роб Мариано, окажутся в Перу. Там им самим придется самим найти способ добраться до озера Титикака, расположенного на высоте трех тысяч восемьсот метров над уровнем моря и являющимся одним из самых высокогорных судоходных озер.
Но для начала нашим героям необходимо выбраться из Калифорнии...
2 выпуск Парни из Ипанемы
Это следующая глава удивительного путешествия под названием 80 способов обогнуть земной шар.
На настоящий момент парни уже использовали девять способов, чтобы добраться с юга Калифорнии до озера Титикака в Перу. Посмотрим, как у них пойдут дела дальше, ведь сейчас им предстоит преодолеть более 720 километров, а именно расстояние от Сан-Пауло - крупнейшего города Бразилии до одного из самых горячих пляжей мира - Ипанема в Рио-де-Жанейро.
3 выпуск Падение с водопада Виктория
Звезда реалити-шоу Роб Мариано и водитель огромных машин Дэннис Андерсон уже перепробовали семнадцать способов, что бы добраться из южной Калифорнии до бразильского пляжа Ипанема. И теперь они в Африке и их ждет новая цель - крупнейший в мире водопад Виктория...
4 выпуск Держите свой катафалк
Звезда реалити-шоу Роб Мариано и гонщик на монстр-траках Дэннис Андерсон уже нашли 24 способа передвижения и добрались из Южной Калифорнии до африканского водопада Виктория. Теперь у них новый пункт назначения - озеро Танганьика в Замбии. Это самое длинное пресноводное озеро в мире, его протяженность 676 километров.
5 выпуск Рынки Занзибара
Звезда реалити-шоу Роб Мариано и водитель огромных машин Дэннис Андерсон уже изобрели, украли и позаимствовали 33 способа передвижения и добрались из южной Калифорнии до африканского озера Танганьика.
Следующий пункт назначения - всемирно известные рынки архипелага Занзибар...
6 выпуск Встреча с бедуинами
Водитель монстр-траков Дэннис Андерсон и звезда реалити-шоу "Бостон" Роб Мариано уже нашли 40 способов попасть из южной Калифорнии в восточную Африку.
Сейчас они на Аравийском полуострове в Объединенных Арабских Эмиратах. Они попробуют отыскать как можно больше способов передвижения в роскошных городах Абу-Даби и Дубай. Их цель - встретится с бедуинами кочевниками, использующих одно из древнейших форм передвижения...
7 выпуск Путешествие по Индии
Путешествуя по Индии, Роб с Дэннисом получили хороший урок: иногда жизнь выбрасывает на обочину...
Звезда реалити-шоу "Бостон" Роб Мариано и гонщик на монстр-траках Дэннис Андерсон уже нашли 48 способов передвижения и проехали от южной Калифорнии через Южную Америку и Африку до Аравийского полуострова. Теперь им предстоит путешествие по Индии, где они направятся в Удайпур к озеру Пиккола.
8 выпуск Фестиваль муссонов
Звезда реалити-шоу "Бостон" Роб Мариано и водитель грузовиков Дэннис Андерсон уже испробовали 53 способа передвижения, чтобы добраться из Лос-Анджелеса до Дивара в Мндии.
В этой части путешествия по Индии парни двинутся из Дели на Калькутту, где им предстоит посетить фестиваль муссонов. Но каким бы способом они не путешествовали, вопрос в том - кто придет первым?
9 выпуск Заплыв в Таиланде
Звезда реалити-шоу Роб Мариано и гонщик на монстр-траках Дэннис Андерсон уже нашли 61 способ передвижения из Лос-Анджелеса через три четверти земного шара до Калькутты в Индии. На подручных средствах им предстоит проплыть по заводям южного Таиланда и добраться до Бангкока.
Хватит ли им способов, что бы вернуться домой или они завязнут где-нибудь? Отсчет уже начался!
10 выпуск Возвращение домой
Звезда реалити-шоу Роб Мариано и гонщик на монстр-траках Дэннис Андерсон придумали 68 способов как добраться из Лос-Анджелеса до Бангкока в Таиланде. Сейчас они опять в США, в прибрежном Сан-Франциско. Им предстоит найти еще 12 способов, как добраться до Южной Калифорнии и закончить свой эпический поиск.
Скриншоты:
       
       

еще скриншоты

       
       
       
       
       
       

тех. данные у всех одинаковы

Общее
Полное имя : H:\ДОКУМЕНТАЛКИ\80 способов обогнуть земной шар\80 способов обогнуть земной шар - 1 серия.avi
Формат : AVI
Формат/Информация : Audio Video Interleave
Размер файла : 465 Мбайт
Продолжительность : 43 м.
Общий поток : 1505 Кбит/сек
Программа кодирования : Lavf52.94.0
Примечание : www.freemake.com
Видео
Идентификатор : 0
Формат : AVC
Формат/Информация : Advanced Video Codec
Профиль формата : [url=mailto:[email protected]][email protected][/url]
Параметр CABAC формата : Да
Параметр ReFrames формата : 2 кадра
Идентификатор кодека : H264
Продолжительность : 43 м.
Битрейт : 1232 Кбит/сек
Ширина : 720 пикселей
Высота : 408 пикселей
Соотношение сторон : 16:9
Режим частоты кадров : Переменный
Частота кадров : 29,970 кадров/сек
Цветовое пространство : YUV
Субдискретизация насыщенности : 4:2:0
Битовая глубина : 8 бит
Тип развёртки : Прогрессивная
Бит/(Пиксели*Кадры) : 0.140
Размер потока : 382 Мбайт (82%)
Библиотека кодирования : x264 core 112 r1834 a51816a
Настройки программы : cabac=1 / ref=1 / deblock=1:0:0 / analyse=0x1:0 / me=dia / subme=2 / psy=1 / psy_rd=0.00:0.00 / mixed_ref=0 / me_range=16 / chroma_me=1 / trellis=0 / 8x8dct=0 / cqm=0 / deadzone=21,11 / fast_pskip=1 / chroma_qp_offset=0 / threads=4 / sliced_threads=0 / nr=0 / decimate=1 / interlaced=0 / constrained_intra=0 / bframes=3 / b_pyramid=0 / b_adapt=1 / b_bias=0 / direct=3 / weightb=0 / open_gop=0 / weightp=2 / keyint=250 / keyint_min=25 / scenecut=40 / intra_refresh=0 / rc_lookahead=40 / rc=abr / mbtree=1 / bitrate=1232 / ratetol=1.0 / qcomp=0.60 / qpmin=10 / qpmax=51 / qpstep=4 / ip_ratio=1.41 / aq=1:1.00
Аудио
Идентификатор : 1
Формат : MPEG Audio
Версия формата : Version 1
Профиль формата : Layer 3
Режим : Joint stereo
Расширение режима : MS Stereo
Идентификатор кодека : 55
Идентификатор кодека/Подсказка : MP3
Продолжительность : 43 м.
Вид битрейта : Постоянный
Битрейт : 256 Кбит/сек
Каналы : 2 канала
Частота : 44,1 КГц
Метод сжатия : С потерями
Размер потока : 79,1 Мбайт (17%)
Выравнивание : Соединение по промежуткам
Продолжительность промежутка : 26 мс. (0,78 видеокадр)
Библиотека кодирования : LAME3.98.4
Время раздачи: с 9:00 до 21:00 по МСК
Other forum [Profile] [PM]
Display posts from previous:    
Reply to topic

The time now is: Today 12:11

All times are GMT + 3 Hours



You cannot post new topics in this forum
You cannot reply to topics in this forum
You cannot edit your posts in this forum
You cannot delete your posts in this forum
You cannot vote in polls in this forum
You cannot attach files in this forum
You cannot download files in this forum