Сегодня идет свободное скачивание без начисления Download

Тихоня (Михаил Израилев) (1973, Мелодрама, Комедия) SATRip

Ответить на тему
 
Автор
Сообщение

Prince ®

Пол:

Стаж: 5 лет 6 месяцев

Сообщений: 19

Торрент-статистика

Пост 18-Мар-2013 13:27

[Цитировать]

Тихоня- Русское название: Тихоня
Год выпуска: 1973
Жанр: Мелодрама, Комедия
Описание фильма:
Скромного жителя молдавского городка Василия Чебана незаслуженно обвиняют в том, что три года назад в Ялте он познакомился с девушкой Надей, и она родила от него ребенка. Хотя Василий и не являлся отцом, он решает материально помогать Наде, скрыв все от своей матери. Случайно обнаружив письма, мать Чебана приглашает Надю приехать. Оказавшись у "родственников", Надя понимает, что произошла ошибка, но бабушка категорически заявляет, что никуда не отпустит внука, да и Василий думает предложить Наде стать его женой...
Режиссер: Михаил Израилев
Актеры: Альберт Филозов, Евгения Ветлова, Наталья Гурзо, Ела Санько, Юрий Саранцев, Ольга Викландт, Владимир Пицек, Владимир Дюков
Продолжительность: 01:11:21
Видеокодек: Xvid
Битрейт видео: ~1258 kbps
Размер кадра: 640x480
Качество видео: DVDRip
Аудиокодек: MP3, 2ch
Битрейт аудио: 128.00 kbps

MI

Общее
Полное имя : C:\Users\1\Downloads\Tihonjia.avi
Формат : AVI
Формат/Информация : Audio Video Interleave
Размер файла : 713 Мбайт
Продолжительность : 1 ч. 11 м.
Общий поток : 1397 Кбит/сек
Название фильма : Tihonjia_711_[спам]
Режиссёр : mio47
Жанр : Comedy
Программа кодирования : VirtualDubModRus 1.5.10.2 (build 2542/release)
Формат оригинала/Имя : Movie
Видео
Идентификатор : 0
Формат : MPEG-4 Visual
Профиль формата : Advanced [email protected]
Параметр BVOP формата : 2
Параметр QPel формата : Нет
Параметр GMC формата : Без точки перехода
Параметр матрицы формата : Выборочная
Идентификатор кодека : XVID
Идентификатор кодека/Подсказка : XviD
Продолжительность : 1 ч. 11 м.
Битрейт : 1259 Кбит/сек
Ширина : 640 пикселей
Высота : 480 пикселей
Соотношение сторон : 4:3
Частота кадров : 25,000 кадров/сек
Цветовое пространство : YUV
Субдискретизация насыщенности : 4:2:0
Битовая глубина : 8 бит
Тип развёртки : Прогрессивная
Метод сжатия : С потерями
Бит/(Пиксели*Кадры) : 0.164
Размер потока : 642 Мбайт (90%)
Библиотека кодирования : XviD 65
Аудио
Идентификатор : 1
Формат : MPEG Audio
Версия формата : Version 1
Профиль формата : Layer 3
Идентификатор кодека : 55
Идентификатор кодека/Подсказка : MP3
Продолжительность : 1 ч. 11 м.
Вид битрейта : Постоянный
Битрейт : 128 Кбит/сек
Каналы : 2 канала
Частота : 48,0 КГц
Метод сжатия : С потерями
Размер потока : 65,3 Мбайт (9%)
Выравнивание : Соединение по промежуткам
Продолжительность промежутка : 40 мс. (1,00 видеокадр)
Время предзагрузки промежутка : 504 мс.
Библиотека кодирования : LAME3.99r
Настройки программы : -m s -V 4 -q 2 -lowpass 17 -b 128
Скриншоты:
     
     
Вне форума [Профиль] [ЛС]
Показать сообщения:    
Ответить на тему

Текущее время: Сегодня 20:32

Часовой пояс: GMT + 3



Вы не можете начинать темы
Вы не можете отвечать на сообщения
Вы не можете редактировать свои сообщения
Вы не можете удалять свои сообщения
Вы не можете голосовать в опросах
Вы не можете прикреплять файлы к сообщениям
Вы не можете скачивать файлы