Today is a free download without charge Download

Будет светлым день (2013) [H.264/720p] HDTVRip [1-2(2)]

Reply to topic
 
Author
Message

UndegraundMen ®

Longevity: 8 years 9 months

Posts: 25145

Торрент-статистика

Post 18-Mar-2013 02:56

[Quote]

Будет светлым день (2013) [H.264/720p] HDTVRip [1-2(2)]- Русское название: Будет светлым день
Год выпуска: 2013
Жанр: Мелодрама

Режиссер: Олег Штром
Актеры: Анна Попова, Станислав Бондаренко, Екатерина Андрейченко, Татьяна Новик, Александр Никитин, Алёна Яковлева, Руслан Ягудин, Валерий Шумский, Татьяна Шумская, Ирина Ефремова, Владимир Лаптев
Описание фильма:
Даниил - редактор журнала, его жена, Елена – по образованию переводчица. Они поженились сразу после окончания университета. Вскоре после их свадьбы, в страшной аварии погибает мать Даниила, а его отец становится инвалидом. Елена посвящает себя уходу за свекром и его реабилитации. Полностью погруженная в заботы, она не замечает, что муж все чаще задерживается на работе. В успешного и молодого Даниила влюблено большинство сотрудниц и дочь главы издательского дома, Ирина - не исключение. Даниил отвечает ей взаимностью. Через некоторое время Ирина объявляет, что ждет ребенка. Лена узнает о том, что муж ей изменяет, а его любовница беременна. Она принимает решение уйти от мужа и устроиться на работу. Но без опыта найти работу очень не просто. Поиски работы приводят её в компанию Николая Егорова, где ей предстоит заново научиться строить свою жизнь и карьеру. Порядочность, отзывчивость и доброта Елены не могут остаться незамеченными, а сложности и горести – должны отступить.
Продолжительность: Серия ~01:30:00
Качество видео: HDTVRip
Видео: 1280x720, 25 fps, x264 AVC ~5700 kbps avg, 0.247 bit/pixel
Аудио: 48 kHz, Audio Coding 3, 2 ch, ~192.00 kbps avg

MI

Общее
Уникальный идентификатор : 232524480434508542126187030505952802115 (0xAEEE9601F21F46499994F1979B727543)
Полное имя : E:\Закачки\1\Будет светлым день 2013 HDTVRip (720p)\Будет светлым день 01.mkv
Формат : Matroska
Версия формата : Version 2
Размер файла : 3,61 Гбайт
Продолжительность : 1 ч. 27 м.
Общий поток : 5892 Кбит/сек
Дата кодирования : UTC 2013-03-16 23:30:18
Программа кодирования : mkvmerge v4.9.1 ('Ich will') сборка от Jul 11 2011 23:53:15
Библиотека кодирования : libebml v1.2.1 + libmatroska v1.1.1
Видео
Идентификатор : 1
Формат : AVC
Формат/Информация : Advanced Video Codec
Профиль формата : [url=mailto:[email protected]][email protected][/url]
Параметр CABAC формата : Да
Параметр ReFrames формата : 5 кадров
Идентификатор кодека : V_MPEG4/ISO/AVC
Продолжительность : 1 ч. 27 м.
Битрейт : 5700 Кбит/сек
Ширина : 1280 пикселей
Высота : 720 пикселей
Соотношение сторон : 16:9
Режим частоты кадров : Постоянный
Частота кадров : 25,000 кадров/сек
Цветовое пространство : YUV
Субдискретизация насыщенности : 4:2:0
Битовая глубина : 8 бит
Тип развёртки : MBAFF
Бит/(Пиксели*Кадры) : 0.247
Размер потока : 3,42 Гбайт (95%)
Библиотека кодирования : x264 core 116 r2044 392e762
Настройки программы : cabac=1 / ref=5 / deblock=1:-1:-1 / analyse=0x3:0x113 / me=umh / subme=10 / psy=1 / psy_rd=0.00:0.10 / mixed_ref=1 / me_range=32 / chroma_me=1 / trellis=2 / 8x8dct=1 / cqm=0 / deadzone=21,11 / fast_pskip=0 / chroma_qp_offset=-1 / threads=12 / sliced_threads=0 / nr=0 / decimate=1 / interlaced=tff / bluray_compat=0 / constrained_intra=0 / bframes=5 / b_pyramid=2 / b_adapt=1 / b_bias=0 / direct=1 / weightb=1 / open_gop=0 / weightp=0 / keyint=250 / keyint_min=25 / scenecut=40 / intra_refresh=0 / rc_lookahead=40 / rc=abr / mbtree=1 / bitrate=5700 / ratetol=1.0 / qcomp=0.60 / qpmin=0 / qpmax=69 / qpstep=4 / ip_ratio=1.40 / aq=1:1.00
Default : Да
Forced : Нет
Аудио
Идентификатор : 2
Формат : AC-3
Формат/Информация : Audio Coding 3
Расширение режима : CM (complete main)
Параметр Endianness формата : Big
Идентификатор кодека : A_AC3
Продолжительность : 1 ч. 27 м.
Вид битрейта : Постоянный
Битрейт : 192 Кбит/сек
Каналы : 2 канала
Расположение каналов : Front: L R
Частота : 48,0 КГц
Битовая глубина : 16 бит
Метод сжатия : С потерями
Размер потока : 120 Мбайт (3%)
Default : Да
Forced : Нет
Скриншоты:
Other forum [Profile] [PM]
Display posts from previous:    
Reply to topic

The time now is: Today 18:38

All times are GMT + 3 Hours



You cannot post new topics in this forum
You cannot reply to topics in this forum
You cannot edit your posts in this forum
You cannot delete your posts in this forum
You cannot vote in polls in this forum
You cannot attach files in this forum
You cannot download files in this forum