Today is a free download without charge Download

Сонька. Продолжение легенды / Серии: 1-14 из 14 (Виктор Мережко) [2010, Криминальная драма, SATRip - AVC]

Reply to topic
 
Author
Message

Omen ®

Longevity: 9 years 1 month

Posts: 181086

Торрент-статистика

Post 18-Mar-2013 01:24

[Quote]

Сонька. Продолжение легенды- Год выпуска: 2010
Производство: "Аврора" при участии кинокомпании "Кинопитер"
Жанр: Криминальная драма
Продолжительность: ~ 00:45:00
Субтитры: нет-Режиссёр: Виктор Мережко-В ролях: Варвара Щербакова, Анна Антонелли, Анастасия Микульчина, Андрей Мартынов, Владимир Матвеев, Сергей Перегудов, Дмитрий Аверин, Наташа Варфоломеева, Владимир Крылов, Алексей Барабаш, Сергей Гамов, Эрнест Тимерханов, Андрей Шарков, Тимур Ворохов, Игорь Ботвин, Константин Воробьев, Полина Воробьева, Михаил Елисеев, Станислав Концевич, Владимир Кошевой, Дмитрий Луговкин, Виктор Мелихов, Александр Устинов (II), Алексей Чардымский, Сергей Русскин, Сергей Кузнецов, Виктор Мережко, Роман Анушин, Наталья Бражникова, Дмитрий Воробьев (II), Александр Глинский, Софья Горелик, Анна Громенко, Максим Гудков, Анна Дзыгало, Николай Дик, Борис Ивушин, Владислав Комаров, Сергей Кудрявцев, Сергей Лысов, Сергей Мурзин, Яков Петров, Татьяна Шаркова (II), Радик Шахмаев-Описание: Время действия — 1905 год, может, самый трагический год в Российский истории. Поражение в русско-японской войне, неверие в будущее, общий упадок морали и нравственности; декаданс становится модой, модой также становится употребление опиума. Террористы, бомбисты, революционеры, еврейские погромы, отчаяние, висящее в воздухе…
На таком фоне развивается драма Соньки и ее дочерей, Таббы и Михелины. Если Табба — знаменитая прима оперетты Санкт-Петеребурга, то младшая Михелина промышляет воровством вместе с матерью. Все трое переживают истинную драму: от надежды на лучшее до полного краха.-Доп. Информация: Спасибо Dimaker84 за предоставленный исходник!-Любая реклама ОТСУТСТВУЕТ!!!--Качество: SATRip - AVC
Формат: MKV
Видео кодек: H.264
Аудио кодек: AC3
Видео: x264, 712 х 430**759 х 430 (16:9), 25,000 кадр/сек, ~ 1636 Кбит/сек, ~ 0.214 bit/pixel
Аудио: AC3, 48.0 KHz, 2 канала(ов), 192 kbs

MI

Complete name : Сонька. Продолжение легенды.01 серия.2010.SATRip-AVC.Metla111.mkv
Format : Matroska
Format version : Version 2
File size : 601 MiB
Duration : 45mn 52s
Overall bit rate : 1 830 Kbps
Encoded date : UTC 2013-03-04 00:50:11
Writing application : mkvmerge v5.8.0 ('No Sleep / Pillow') built on Sep 2 2012 15:37:04
Writing library : libebml v1.2.3 + libmatroska v1.3.0
Video
ID : 1
Format : AVC
Format/Info : Advanced Video Codec
Format profile : [email protected]
Format settings, CABAC : Yes
Format settings, ReFrames : 10 frames
Codec ID : V_MPEG4/ISO/AVC
Duration : 45mn 52s
Bit rate : 1 636 Kbps
Width : 712 pixels
Height : 430 pixels
Display aspect ratio : 16:9
Original display aspect ratio : 16:9
Frame rate mode : Constant
Frame rate : 25.000 fps
Color space : YUV
Chroma subsampling : 4:2:0
Bit depth : 8 bits
Scan type : Progressive
Bits/(Pixel*Frame) : 0.214
Stream size : 526 MiB (88%)
Writing library : x264 core 125 r2208 d9d2288
Encoding settings : cabac=1 / ref=10 / deblock=1:-3:-3 / analyse=0x3:0x113 / me=umh / subme=9 / psy=1 / psy_rd=1.00:0.20 / mixed_ref=1 / me_range=32 / chroma_me=1 / trellis=2 / 8x8dct=1 / cqm=0 / deadzone=21,11 / fast_pskip=1 / chroma_qp_offset=-3 / threads=6 / lookahead_threads=1 / sliced_threads=0 / nr=0 / decimate=0 / interlaced=0 / bluray_compat=0 / constrained_intra=0 / bframes=8 / b_pyramid=2 / b_adapt=2 / b_bias=0 / direct=3 / weightb=1 / open_gop=0 / weightp=2 / keyint=250 / keyint_min=25 / scenecut=40 / intra_refresh=0 / rc=2pass / mbtree=0 / bitrate=1636 / ratetol=1.0 / qcomp=0.70 / qpmin=0 / qpmax=69 / qpstep=4 / cplxblur=20.0 / qblur=0.5 / ip_ratio=1.40 / pb_ratio=1.30 / aq=1:1.00
Default : Yes
Forced : No
Color primaries : BT.601 PAL
Transfer characteristics : BT.470 System B, BT.470 System G
Matrix coefficients : BT.601
Audio
ID : 2
Format : AC-3
Format/Info : Audio Coding 3
Mode extension : CM (complete main)
Format settings, Endianness : Big
Codec ID : A_AC3
Duration : 45mn 52s
Bit rate mode : Constant
Bit rate : 192 Kbps
Channel(s) : 2 channels
Channel positions : Front: L R
Sampling rate : 48.0 KHz
Bit depth : 16 bits
Compression mode : Lossy
Stream size : 63.0 MiB (10%)
Default : Yes
Forced : No

Log - x264

raw [info]: 712x430p 16:15 @ 25/1 fps (cfr)
x264 [info]: using SAR=16/15
x264 [info]: using cpu capabilities: MMX2 SSE2Fast SSSE3 FastShuffle SSE4.2
x264 [info]: profile High, level 3.1
x264 [info]: frame I:423 Avg QP:17.13 size: 51365
x264 [info]: frame P:14985 Avg QP:19.59 size: 18912
x264 [info]: frame B:53401 Avg QP:21.17 size: 4831
x264 [info]: consecutive B-frames: 2.4% 1.6% 7.1% 17.7% 20.6% 47.0% 2.4% 0.7% 0.6%
x264 [info]: mb I I16..4: 16.6% 60.6% 22.8%
x264 [info]: mb P I16..4: 0.2% 7.7% 1.4% P16..4: 37.0% 32.2% 18.4% 0.0% 0.0% skip: 3.1%
x264 [info]: mb B I16..4: 0.0% 0.5% 0.1% B16..8: 41.3% 10.2% 2.9% direct: 6.2% skip:38.8% L0:36.5% L1:46.7% BI:16.9%
x264 [info]: 8x8 transform intra:77.7% inter:46.8%
x264 [info]: direct mvs spatial:98.1% temporal:1.9%
x264 [info]: coded y,uvDC,uvAC intra: 98.0% 57.7% 26.5% inter: 29.7% 14.5% 2.1%
x264 [info]: i16 v,h,dc,p: 11% 6% 48% 35%
x264 [info]: i8 v,h,dc,ddl,ddr,vr,hd,vl,hu: 14% 13% 9% 8% 11% 12% 10% 11% 11%
x264 [info]: i4 v,h,dc,ddl,ddr,vr,hd,vl,hu: 13% 10% 3% 9% 13% 15% 12% 12% 12%
x264 [info]: i8c dc,h,v,p: 34% 31% 22% 14%
x264 [info]: Weighted P-Frames: Y:6.5% UV:1.5%
x264 [info]: ref P L0: 43.8% 12.6% 19.1% 5.3% 5.6% 3.5% 3.9% 1.9% 2.2% 1.8% 0.4% 0.0%
x264 [info]: ref B L0: 82.6% 8.4% 3.1% 1.8% 1.3% 1.2% 0.9% 0.5% 0.2%
x264 [info]: ref B L1: 96.1% 3.9%
x264 [info]: kb/s:1636.63

Скриншоты

-
Other forum [Profile] [PM]
Display posts from previous:    
Reply to topic

The time now is: Today 05:37

All times are GMT + 3 Hours



You cannot post new topics in this forum
You cannot reply to topics in this forum
You cannot edit your posts in this forum
You cannot delete your posts in this forum
You cannot vote in polls in this forum
You cannot attach files in this forum
You cannot download files in this forum