Today is a free download without charge Download

Серебристый звон ручья (Игорь Кечаев) [2012, Россия, Мелодрама, HDTV 1080i]

Reply to topic
 
Author
Message

Omen ®

Longevity: 8 years 5 months

Posts: 181087

Торрент-статистика

Post 18-Mar-2013 01:24

[Quote]

Серебристый звон ручья
Страна: Россия
Студия: Россия
Жанр: Мелодрама
Год выпуска: 2012
Продолжительность: 01:30:15
Перевод: Не требуется
Cубтитры: нет
Режиссер: Игорь Кечаев
В ролях: Татьяна Полосина, Ада Роговцева, Илья Ильин, Александр Пашков и другие.
Описание: Леся – сирота, живет в глухой деревушке на берегу ручья у своей старенькой бабушки Шуры, которую местные жители считают колдуньей. На самом деле Шура - потомственная знахарка, обладающая даром лечить людей. Леся с детства помогает бабке собирать травы для целебных отваров, и сама лечит разнообразную живность, которую ей приводят односельчане. Однажды в деревню приезжает Петр – восстанавливать дом своих бабушки и дедушки и местную разрушенную церковь. В лесу у ручья девушка случайно встречает Петра, и между ними сразу возникает взаимная симпатия. Но Лесе давно не дает проходу Василий - фермер из соседней деревни. Он настроен решительно и готов на все, чтобы отвадить от Леси любого ухажера.
Сэмпл: http://multi-up.com/844066
Тип релиза: HDTV 1080i
Контейнер: TS
Релиз -

Запись чистая. Без посторонних надписей. Выкладывается, как есть.
Качество видео: HDTV 1080i
Формат видео: TS
Видео: AVC, 1920x1080 (16:9), 25 fps, 7853 Kbps, 0.151 bit/pixel
Аудио: MPEG Audio, 48 kHz, stereo, 192 Kbps

MediaInfo

GeneralID : 1 (0x1)Complete name : N:\ВЫКЛАДКА\HDTV\Фильмы\Серебристый звон ручья (2012, Мелодрама, HDTV) (MYDIMKA).tsFormat : MPEG-TSFile size : 5.32 GiBDuration : 1h 30mnOverall bit rate mode : VariableOverall bit rate : 8 445 Kbps
VideoID : 2911 (0xB5F)Menu ID : 1 (0x1)Format : AVCFormat/Info : Advanced Video CodecFormat profile : [email protected] settings, CABAC : YesFormat settings, ReFrames : 3 framesCodec ID : 27Duration : 1h 30mnBit rate : 7 834 KbpsWidth : 1 920 pixelsHeight : 1 080 pixelsDisplay aspect ratio : 16:9Frame rate : 25.000 fpsColor space : YUVChroma subsampling : 4:2:0Bit depth : 8 bitsScan type : MBAFFBits/(Pixel*Frame) : 0.151Stream size : 4.94 GiB (93%)
AudioID : 2912 (0xB60)Menu ID : 1 (0x1)Format : MPEG AudioFormat version : Version 1Format profile : Layer 2Mode : Joint stereoMode extension : Intensity Stereo + MS StereoCodec ID : 3Duration : 1h 30mnBit rate mode : ConstantBit rate : 192 KbpsChannel(s) : 2 channelsSampling rate : 48.0 KHzCompression mode : LossyStream size : 124 MiB (2%)Language : Russian

Скриншот c названием фильма

Скриншоты


Other forum [Profile] [PM]
Display posts from previous:    
Reply to topic

The time now is: Today 10:42

All times are GMT + 3 Hours



You cannot post new topics in this forum
You cannot reply to topics in this forum
You cannot edit your posts in this forum
You cannot delete your posts in this forum
You cannot vote in polls in this forum
You cannot attach files in this forum
You cannot download files in this forum