Today is a free download without charge Download

Любовь не делится на два / Серии: 4 из 4 (Кира Ангелина) [2012, мелодрама, 2 х DVD5]

Reply to topic
 
Author
Message

Omen ®

Longevity: 9 years 1 month

Posts: 181086

Торрент-статистика

Post 17-Mar-2013 21:18

[Quote]

Любовь не делится на два- -Год выпуска: 2012
Дистрибьютор: «Lizard Cinema Trade»
Производство: "Про100 фильм"
Жанр: мелодрама
Продолжительность: 176 мин.
Субтитры: нет-Режиссёр: Кира Ангелина-В ролях:
Анна Пескова, Дмитрий Ефремов, Татьяна Лютаева, Михаил Мамаев, Александр Наумов, Екатерина Семёнова,
Анна Шепелева, Дмитрий Ендальцев, Игорь Новоселов (II), Галина Бокашевская, Юлия Сорокина,
Екатерина Присмотрова-Белова, Ксения Ильясова-Описание:
В Москве в скромной хрущевке живут Яков, Соня и их сын Денис. Парню восемнадцать, а он все никак за ум не возьмется — бренчит целыми днями на гитаре да песни сочиняет. Соня преподает в школе русский язык и литературу, ведет театральный кружок, да еще и репетитором подрабатывает.
А в Самаре живет семья Глеба Дорохова. Глеб — сослуживец Якова и женат на сестре Сони — Раисе.
Наша история начинается с того, что Марина приезжает в Москву, а Денис — в Самару. Причин на то много. Марине надо поступать в университет, учиться. А Денису давно пора браться за ум — Соня надеется, что Глеб займет его делом. Все бы ничего, но, похоже, есть тайна, которая долгие годы связывает две семьи. И причины, толкнувшие родителей обменяться детьми, вовсе не те, что кажутся. Не сразу, но постепенно, зритель начинает понимать, что Соня и Глеб настоящие родители Марины и Дениса. Но как получилось так, что долгие восемнадцать лет Соня была разлучена с дочерью, а Глеб с сыном? Это предстоит узнать только в самом финале.-Доп. информация:

При помощи DVD Remake Pro для удобства просмотра удалены заставки, предупреждения, реклама
Исходник поделен на 2 DVD5 по 2 серии на каждом диске
Навигация диска сохранена, нерабочие кнопки заблокированы
Общее сжатие - 0 %.-

Софт

DVD Remake Pro
Возраст: 12+-Качество: 2 х DVD5
Формат: DVD-Video

Видео: PAL 16:9 (720x576) VBR, Auto Pan&Scan, Auto Letterboxed
Аудио: Russian (Dolby AC3, 2 ch) 192 Kbps-

MediaInfo

General
Complete name : F:\Любовь не делится на два (4 серии из 4х) 2 х DVD5\DVD 2\VIDEO_TS\VTS_04_1.VOB
Format : MPEG-PS
File size : 1 024 MiB
Duration : 25mn 33s
Overall bit rate : 5 602 Kbps
Video
ID : 224 (0xE0)
Format : MPEG Video
Format version : Version 2
Format profile : [email protected]
Format settings, BVOP : Yes
Format settings, Matrix : Default
Duration : 25mn 33s
Bit rate mode : Variable
Bit rate : 5 299 Kbps
Nominal bit rate : 8 000 Kbps
Width : 720 pixels
Height : 576 pixels
Display aspect ratio : 16:9
Frame rate : 25.000 fps
Standard : PAL
Color space : YUV
Chroma subsampling : 4:2:0
Bit depth : 8 bits
Scan type : Progressive
Bits/(Pixel*Frame) : 0.511
Stream size : 969 MiB (95%)
Audio
ID : 128 (0x80)
Format : AC-3
Format/Info : Audio Coding 3
Mode extension : CM (complete main)
Duration : 25mn 32s
Bit rate mode : Constant
Bit rate : 192 Kbps
Channel(s) : 2 channels
Channel positions : Front: L R
Sampling rate : 48.0 KHz
Bit depth : 16 bits
Stream size : 35.1 MiB (3%)
Menu

-

DVDInfo DVD1

Size: 3.59 Gb ( 3 766 648 KBytes ) - DVD-5
Enabled regions: 1, 2, 3, 4, 5, 6, 7, 8
VTS_01 :
Play Length:
Video: PAL 4:3 (720x576) VBR
Audio:
Russian (Dolby AC3, 6 ch)
English (Dolby AC3, 6 ch)
English (Dolby AC3, 6 ch)
VTS_02 :
Play Length: 00:43:40
Video: PAL 16:9 (720x576) VBR, Auto Pan&Scan, Auto Letterboxed
Audio:
Russian (Dolby AC3, 2 ch)
VTS_03 :
Play Length: 00:44:41
Video: PAL 16:9 (720x576) VBR, Auto Pan&Scan, Auto Letterboxed
Audio:
Russian (Dolby AC3, 2 ch)
VTS_04 :
Play Length: 00:00:02
Video: PAL 16:9 (720x576) VBR, Auto Pan&Scan, Auto Letterboxed
Audio:
Russian (Dolby AC3, 2 ch)
VTS_05 :
Play Length: 00:00:02
Video: PAL 16:9 (720x576) VBR, Auto Pan&Scan, Auto Letterboxed
Audio:
Russian (Dolby AC3, 2 ch)
Menu Video:
NTSC 4:3 (720x480) VBR
Auto Pan&Scan, Auto Letterboxed
Menu English Language Unit :
Root Menu
Chapter (PTT) Menu
Audio #1: AC3, 2/0 ch, 192Kbps, Delay 0 mSec

DVDInfo DVD2

Size: 3.68 Gb ( 3 862 646 KBytes ) - DVD-5
Enabled regions: 1, 2, 3, 4, 5, 6, 7, 8
VTS_01 :
Play Length:
Video: PAL 4:3 (720x576) VBR
Audio:
Russian (Dolby AC3, 6 ch)
English (Dolby AC3, 6 ch)
English (Dolby AC3, 6 ch)
VTS_02 :
Play Length: 00:00:02
Video: PAL 16:9 (720x576) VBR, Auto Pan&Scan, Auto Letterboxed
Audio:
Russian (Dolby AC3, 2 ch)
VTS_03 :
Play Length: 00:00:02
Video: PAL 16:9 (720x576) VBR, Auto Pan&Scan, Auto Letterboxed
Audio:
Russian (Dolby AC3, 2 ch)
VTS_04 :
Play Length: 00:44:56
Video: PAL 16:9 (720x576) VBR, Auto Pan&Scan, Auto Letterboxed
Audio:
Russian (Dolby AC3, 2 ch)
VTS_05 :
Play Length: 00:45:47
Video: PAL 16:9 (720x576) VBR, Auto Pan&Scan, Auto Letterboxed
Audio:
Russian (Dolby AC3, 2 ch)
Menu Video:
NTSC 4:3 (720x480) VBR
Auto Pan&Scan, Auto Letterboxed
Menu English Language Unit :
Root Menu
Chapter (PTT) Menu
Audio #1: AC3, 2/0 ch, 192Kbps, Delay 0 mSec

-

Скриншоты меню

Скриншоты сериала DVD1



Скриншоты сериала DVD2



-Раздаю до первых 5-ти скачавших, на раздачи не возвращаюсь...-
Other forum [Profile] [PM]
Similar theme
Forum Topic Author Torrent Replies Last Post
./templates/default/images/folder_dl.gif Обучающая и научно-популярная литература Димитрий Семеник | Наполни жизнь любовью [2010] [MP3] Omen
1 | 0

0 | 1955

6

2013-01-14 21:04
Omen Latest
./templates/default/images/folder_dl.gif Ролики, сайт рипы Малолеткина любовь или цветочек за перепихнуться... [ SeventeenVideo.com, all sex, teen, oral, HD, 2012 ] Anonymous
0 | 1

0 | 5016

34

2017-06-12 18:32
Anonymous Latest
Display posts from previous:    
Reply to topic

The time now is: Today 06:18

All times are GMT + 3 Hours



You cannot post new topics in this forum
You cannot reply to topics in this forum
You cannot edit your posts in this forum
You cannot delete your posts in this forum
You cannot vote in polls in this forum
You cannot attach files in this forum
You cannot download files in this forum