Today is a free download without charge Download

Будет светлым день / Серии: 01-02 из 02 (Олег Штром) [2013, Мелодрама, HDTV, 1080i]

Reply to topic
 
Author
Message

Omen ®

Longevity: 9 years 1 month

Posts: 181086

Торрент-статистика

Post 17-Mar-2013 21:18

[Quote]

Будет светлым день
Год выпуска: 2013
Производство: Россия, «ВайТ Медиа»
Жанр: Мелодрама
Продолжительность: 02:56:03
Субтитры: Отсутствуют
Режиссёр: Олег Штром
В ролях: Анна Попова, Станислав Бондаренко, Екатерина Андрейченко, Татьяна Новик, Александр Никитин, Алёна Яковлева, Руслан Ягудин, Валерий Шумский, Татьяна Шумская, Ирина Ефремова, Владимир Лаптев и другие.
Описание: Даниил - редактор журнала, его жена, Елена – по образованию переводчица. Они поженились сразу после окончания университета. Вскоре после их свадьбы, в страшной аварии погибает мать Даниила, а его отец становится инвалидом. Елена посвящает себя уходу за свекром и его реабилитации. Полностью погруженная в заботы, она не замечает, что муж все чаще задерживается на работе. В успешного и молодого Даниила влюблено большинство сотрудниц и дочь главы издательского дома, Ирина - не исключение. Даниил отвечает ей взаимностью. Через некоторое время Ирина объявляет, что ждет ребенка. Лена узнает о том, что муж ей изменяет, а его любовница беременна. Она принимает решение уйти от мужа и устроиться на работу. Но без опыта найти работу очень не просто. Поиски работы приводят её в компанию Николая Егорова, где ей предстоит заново научиться строить свою жизнь и карьеру. Порядочность, отзывчивость и доброта Елены не могут остаться незамеченными, а сложности и горести – должны отступить.
Сэмпл: http://multi-up.com/843834
Доп. информация: Релиз -

Рип чистый. Без посторонних надписей. Выкладывается как есть.
Качество: HDTV 1080i
Контейнер: TS
Видео кодек: AVC
Аудио кодек: AC3
Видео: 1920x1080 (16:9) 25.000 fps 7 833 Kbps, 0.151 bit/pixel
Аудио: MPEG Audio 48000Hz stereo 192 Кбит/сек

Скриншоты


MI

GeneralID : 1 (0x1)Complete name : M:\ВЫКЛАДКА\HDTV\Сериалы\Будет светлым день (2013, Мелодрама, HDTV) (MYDIMKA)\01 серия.tsFormat : MPEG-TSFile size : 5.17 GiBDuration : 1h 27mnOverall bit rate mode : VariableOverall bit rate : 8 436 Kbps
VideoID : 2911 (0xB5F)Menu ID : 1 (0x1)Format : AVCFormat/Info : Advanced Video CodecFormat profile : [email protected] settings, CABAC : YesFormat settings, ReFrames : 3 framesCodec ID : 27Duration : 1h 27mnBit rate : 7 825 KbpsWidth : 1 920 pixelsHeight : 1 080 pixelsDisplay aspect ratio : 16:9Frame rate : 25.000 fpsColor space : YUVChroma subsampling : 4:2:0Bit depth : 8 bitsScan type : MBAFFBits/(Pixel*Frame) : 0.151Stream size : 4.80 GiB (93%)
AudioID : 2912 (0xB60)Menu ID : 1 (0x1)Format : MPEG AudioFormat version : Version 1Format profile : Layer 2Codec ID : 3Duration : 1h 27mnBit rate mode : ConstantBit rate : 192 KbpsChannel(s) : 2 channelsSampling rate : 48.0 KHzCompression mode : LossyStream size : 121 MiB (2%)Language : Russian

Постер HQ

Other forum [Profile] [PM]
Display posts from previous:    
Reply to topic

The time now is: Today 22:44

All times are GMT + 3 Hours



You cannot post new topics in this forum
You cannot reply to topics in this forum
You cannot edit your posts in this forum
You cannot delete your posts in this forum
You cannot vote in polls in this forum
You cannot attach files in this forum
You cannot download files in this forum