Today is a free download without charge Download

Тайны «Ночного дозора» / Nightwatching (Питер Гринуэй / Peter Greenaway) [2007, Великобритания, Польша, Канада, Нидерланды, драма, детектив, биография, история, BDRip 1080p] MVO (R5) + DVO (НТВ) + Original + subs (Rus, Eng)

Reply to topic
 
Author
Message

Omen ®

Longevity: 8 years 5 months

Posts: 181087

Торрент-статистика

Post 17-Mar-2013 21:18

[Quote]

Тайны «Ночного дозора» / Nightwatching- Год выпуска: 2007
Страна: Великобритания, Польша, Канада, Нидерланды
Жанр: драма, детектив, биография, история
Продолжительность: 02:15:25
Перевод 1: Профессиональный (многоголосый, закадровый) R5
Перевод 2: Профессиональный (двухголосый, закадровый) НТВ
Оригинальная звуковая дорожка: English
Cубтитры: Russian (R5), Russian (НТВ), английские-Режиссер: Питер Гринуэй / Peter Greenaway
В ролях: Мартин Фриман, Эмили Холмс, Ева Бертистл, Джоди Мэй, Тоби Джонс, Джонатан Холмс, Майкл Тиган, Кевин МакНалти, Агата Бузек, Натали Пресс
Описание: Как идентифицировать убийцу среди стрелков роты капитана Франса Баннинга Кока и лейтенанта Виллема ван Рейтенбурга? Остросюжетная история расследования политического заговора и зловещего преступления с помощью одной из самых загадочных картин в мировом искусстве, шедевра Рембрандта «Ночной дозор». Какие события в жизни художника отразились на его полотнах пронзительной глубиной и неземным светом? Экстравагантный взгляд на жизнь и творчество гениального Рембрандта.-Релиз: by manofgod
Формат: MKV
Видео: 1920x816 at 25.000 fps, [email protected], 2pass, ~8790 kbps avg
Аудио #1: Russian: 48 kHz, AC3, 3/2 (L,C,R,l,r) + LFE ch, ~448.00 kbps avg |Многоголосый закадровый, R5|
Аудио #2: Russian: 48 kHz, AC3, 2/0 (L,R) ch, ~448.00 kbps avg |Двухголосый закадровый, НТВ|
Аудио #3: English: 48 kHz, DTS, 3/2 (L,C,R,l,r) + LFE ch, ~768.00 kbps avg
Семпл-

Кадры из фильма


-

mInfo


Формат : Matroska
Версия формата : Version 2
Размер файла : 9,89 Гбайт
Продолжительность : 2 ч. 15 м.
Общий поток : 10,5 Мбит/сек
Дата кодирования : UTC 2013-03-15 17:03:42
Программа кодирования : mkvmerge v5.8.0 ('No Sleep / Pillow') built on Sep 2 2012 15:37:04
Библиотека кодирования : libebml v1.2.3 + libmatroska v1.3.0
Видео
Идентификатор : 1
Формат : AVC
Формат/Информация : Advanced Video Codec
Профиль формата : [email protected]
Параметр CABAC формата : Да
Параметр ReFrames формата : 5 кадров
Идентификатор кодека : V_MPEG4/ISO/AVC
Продолжительность : 2 ч. 15 м.
Битрейт : 8790 Кбит/сек
Ширина : 1920 пикселей
Высота : 816 пикселей
Соотношение сторон : 2,35:1
Режим частоты кадров : Постоянный
Частота кадров : 25,000 кадров/сек
Цветовое пространство : YUV
Субдискретизация насыщенности : 4:2:0
Битовая глубина : 8 бит
Тип развёртки : Прогрессивная
Бит/(Пиксели*Кадры) : 0.224
Размер потока : 8,12 Гбайт (82%)
Заголовок : Тайны «Ночного дозора» / Nightwatching (2007) - Release for HDClub
Библиотека кодирования : x264 core 130 r2273 b3065e6
Настройки программы : cabac=1 / ref=5 / deblock=1:-2:-2 / analyse=0x3:0x113 / me=umh / subme=11 / psy=1 / psy_rd=1.25:0.00 / mixed_ref=1 / me_range=32 / chroma_me=1 / trellis=2 / 8x8dct=1 / cqm=0 / deadzone=21,11 / fast_pskip=0 / chroma_qp_offset=-2 / threads=12 / lookahead_threads=2 / sliced_threads=0 / nr=0 / decimate=0 / interlaced=0 / bluray_compat=0 / constrained_intra=0 / bframes=8 / b_pyramid=2 / b_adapt=2 / b_bias=0 / direct=3 / weightb=1 / open_gop=0 / weightp=2 / keyint=250 / keyint_min=25 / scenecut=40 / intra_refresh=0 / rc=2pass / mbtree=0 / bitrate=8790 / ratetol=1.0 / qcomp=0.70 / qpmin=0 / qpmax=69 / qpstep=4 / cplxblur=20.0 / qblur=0.5 / ip_ratio=1.40 / pb_ratio=1.30 / aq=2:1.20
Язык : English
Default : Да
Forced : Нет
Основные цвета : BT.709
Характеристики трансфера : BT.709
Коэффициенты матрицы : BT.709
Аудио #1
Идентификатор : 2
Формат : AC-3
Формат/Информация : Audio Coding 3
Расширение режима : CM (complete main)
Параметр Endianness формата : Big
Идентификатор кодека : A_AC3
Продолжительность : 2 ч. 15 м.
Вид битрейта : Постоянный
Битрейт : 448 Кбит/сек
Каналы : 6 каналов
Расположение каналов : Front: L C R, Side: L R, LFE
Частота : 48,0 КГц
Битовая глубина : 16 бит
Метод сжатия : С потерями
Размер потока : 434 Мбайт (4%)
Заголовок : Многоголосый закадровый, R5, AC-3 448 Kbps 5/1
Язык : Russian
Default : Да
Forced : Нет
Аудио #2
Идентификатор : 3
Формат : AC-3
Формат/Информация : Audio Coding 3
Расширение режима : CM (complete main)
Параметр Endianness формата : Big
Идентификатор кодека : A_AC3
Продолжительность : 2 ч. 15 м.
Вид битрейта : Постоянный
Битрейт : 448 Кбит/сек
Каналы : 2 канала
Расположение каналов : Front: L R
Частота : 48,0 КГц
Битовая глубина : 16 бит
Метод сжатия : С потерями
Размер потока : 434 Мбайт (4%)
Заголовок : Двухголосый закадровый, НТВ, AC-3 448 Kbps 2/0
Язык : Russian
Default : Нет
Forced : Нет
Аудио #3
Идентификатор : 4
Формат : DTS
Формат/Информация : Digital Theater Systems
Режим : 16
Параметр Endianness формата : Big
Идентификатор кодека : A_DTS
Продолжительность : 2 ч. 15 м.
Вид битрейта : Постоянный
Битрейт : 768 Кбит/сек
Каналы : 6 каналов
Расположение каналов : Front: L C R, Side: L R, LFE
Частота : 48,0 КГц
Битовая глубина : 24 бит
Метод сжатия : С потерями
Задержка видео : 21 мс.
Размер потока : 744 Мбайт (7%)
Заголовок : Оригинал, DTS 768 Kbps 5/1
Язык : English
Default : Нет
Forced : Нет
Текст #1
Идентификатор : 5
Формат : UTF-8
Идентификатор кодека : S_TEXT/UTF8
Идентификатор кодека/Информация : UTF-8 Plain Text
Заголовок : Субтитры, R5
Язык : Russian
Default : Нет
Forced : Нет
Текст #2
Идентификатор : 6
Формат : UTF-8
Идентификатор кодека : S_TEXT/UTF8
Идентификатор кодека/Информация : UTF-8 Plain Text
Заголовок : Субтитры, НТВ
Язык : Russian
Default : Нет
Forced : Нет
Меню
00:00:00.000 : en:Chapter 01
00:09:38.520 : en:Chapter 02
00:21:31.200 : en:Chapter 03
00:31:27.840 : en:Chapter 04
00:40:01.920 : en:Chapter 05
00:53:36.960 : en:Chapter 06
01:03:05.240 : en:Chapter 07
01:10:45.600 : en:Chapter 08
01:18:36.000 : en:Chapter 09
01:36:29.520 : en:Chapter 10
01:49:55.200 : en:Chapter 11
02:02:09.600 : en:Chapter 12
-

log


raw [info]: 1920x816p 1:1 @ 25/1 fps (cfr)
x264 [info]: using SAR=1/1
x264 [info]: using cpu capabilities: MMX2 SSE2Fast SSSE3 SSE4.2 AVX
x264 [info]: profile High, level 4.1
x264 [info]: frame I:1025 Avg QP:10.98 size:211140
x264 [info]: frame P:43351 Avg QP:13.45 size: 82585
x264 [info]: frame B:158741 Avg QP:15.50 size: 32289
x264 [info]: consecutive B-frames: 1.4% 1.4% 5.4% 25.8% 18.4% 44.1% 1.6% 0.8% 1.0%
x264 [info]: mb I I16..4: 22.4% 47.0% 30.6%
x264 [info]: mb P I16..4: 5.7% 12.4% 5.0% P16..4: 26.6% 27.7% 10.9% 0.0% 0.0% skip:11.7%
x264 [info]: mb B I16..4: 2.4% 2.8% 1.6% B16..8: 31.9% 14.9% 2.8% direct: 9.7% skip:33.8% L0:43.3% L1:42.5% BI:14.2%
x264 [info]: 8x8 transform intra:47.3% inter:40.1%
x264 [info]: direct mvs spatial:99.5% temporal:0.5%
x264 [info]: coded y,uvDC,uvAC intra: 64.4% 51.6% 41.9% inter: 29.9% 25.5% 9.2%
x264 [info]: i16 v,h,dc,p: 53% 12% 15% 20%
x264 [info]: i8 v,h,dc,ddl,ddr,vr,hd,vl,hu: 12% 10% 25% 7% 8% 9% 9% 9% 10%
x264 [info]: i4 v,h,dc,ddl,ddr,vr,hd,vl,hu: 17% 12% 46% 3% 4% 5% 4% 4% 5%
x264 [info]: i8c dc,h,v,p: 24% 43% 28% 5%
x264 [info]: Weighted P-Frames: Y:3.9% UV:1.7%
x264 [info]: ref P L0: 48.3% 7.2% 22.7% 11.3% 9.7% 0.8% 0.0%
x264 [info]: ref B L0: 77.5% 16.3% 4.7% 1.5%
x264 [info]: ref B L1: 92.9% 7.1%
x264 [info]: kb/s:8785.22
encoded 203117 frames, 6.73 fps, 8785.22 kb/s

-
Цитата:

*** Сохранены оригинальные чаптеры как на Blu-ray.

-
Other forum [Profile] [PM]
Similar theme
Forum Topic Author Torrent Replies Last Post
./templates/default/images/folder_dl.gif Приключения и квесты Secrets of the Dark: The Flower of Shadow Collector\'s Edition / Тайны Тьмы: Цветок Теней. Коллекционное издание [P] [RUS / ENG] (2014) Omen
1 | 0

0 | 2364

23

2015-06-11 12:04
Omen Latest
Display posts from previous:    
Reply to topic

The time now is: Today 10:41

All times are GMT + 3 Hours



You cannot post new topics in this forum
You cannot reply to topics in this forum
You cannot edit your posts in this forum
You cannot delete your posts in this forum
You cannot vote in polls in this forum
You cannot attach files in this forum
You cannot download files in this forum