Today is a free download without charge Download

Местные новости / Серии: 1 из 20 (Виктор Шамиров, Сергей Медведев) [2013, драма, комедия, SATRip]

Reply to topic
 
Author
Message

Omen ®

Longevity: 9 years 1 month

Posts: 181086

Торрент-статистика

Post 17-Mar-2013 13:13

[Quote]

Местные новости
Год выпуска: 2013
Производство: Yellow, Black and White
Жанр: драма, комедия
Продолжительность: ~0:25:00 серия
Субтитры: отсутствуют--Режиссёр: Виктор Шамиров, Сергей Медведев--В ролях: Павел Кравцов, Марина Дрень, Юрий Добринский, Наталья Аскарова, Василий Радин, Михаил Сопов, Сергей Беланов, Раиса Пащенко и другие.--Описание: Молодой парень убегает из Москвы от жесткой мамы и проблем с нелюбимым институтом к бабушке на лето в Ростов-на-Дону, южный, шумный, открытый город. Знакомится с девушкой - журналисткой местной газеты и устраивается работать в эту газету фотографом. Фотография - его увлечение и страсть, но здесь впервые его фотографии становятся интересны другим людям. Каждая серия - новое журналистское расследование, которое молодые люди проводят вместе, открывая в городе и его людях новые стороны. Наш герой - симпатичный позитивный парень двадцати примерно лет, не выпускает фотоаппарат из рук, снимает постоянно, иногда незаметно для окружающих, часто его снимки позволяют найти деталь, раскрывающую суть дела или дающую зацепку. Его фотографии сопровождают каждую статью, которая появляется в финале серии, как результат задания. По жанру - солнечный забавный детектив, с большим колличеством натурных съемок, живых улиц города, дворов, набережных, пляжа. Наши герои ездят на работу на велосипедах. Это все о счастье молодости, лета, возможности заниматься интересным делом в хорошей компании. И немного о любви, конечно.-
-
-Сэмпл-Качество: SATRip
Формат: AVI
Видео кодек: XviD
Аудио кодек: MP3
Видео: MPEG4, XviD, 656x368 (16/9), 25.000 fps, 1 109 Kbps (0.184 bit/pixel)
Аудио: MP3, 48.0 KHz, 2 ch, 128 Kbps, CBR

Спасибо kostik184 за предоставленный DVB.
Реклама отсутствует!

MediaInfo

General
Complete name : I:\Местные новости\Местные новости.01.avi
Format : AVI
Format/Info : Audio Video Interleave
File size : 216 MiB
Duration : 24mn 11s
Overall bit rate : 1 246 Kbps
Writing application : VirtualDubMod 1.5.10.3 | www.virtualdub-fr.org || (build 2550/release)
Writing library : VirtualDubMod build 2550/release
Video
ID : 0
Format : MPEG-4 Visual
Format profile : Advanced [email protected]
Format settings, BVOP : 1
Format settings, QPel : No
Format settings, GMC : No warppoints
Format settings, Matrix : Custom
Codec ID : XVID
Codec ID/Hint : XviD
Duration : 24mn 11s
Bit rate : 1 109 Kbps
Width : 656 pixels
Height : 368 pixels
Display aspect ratio : 16:9
Frame rate : 25.000 fps
Color space : YUV
Chroma subsampling : 4:2:0
Bit depth : 8 bits
Scan type : Progressive
Compression mode : Lossy
Bits/(Pixel*Frame) : 0.184
Stream size : 192 MiB (89%)
Writing library : XviD 63
Audio
ID : 1
Format : MPEG Audio
Format version : Version 1
Format profile : Layer 3
Mode : Joint stereo
Mode extension : MS Stereo
Codec ID : 55
Codec ID/Hint : MP3
Duration : 24mn 11s
Bit rate mode : Constant
Bit rate : 128 Kbps
Channel(s) : 2 channels
Sampling rate : 48.0 KHz
Compression mode : Lossy
Stream size : 22.2 MiB (10%)
Alignment : Aligned on interleaves
Interleave, duration : 40 ms (1.00 video frame)
Interleave, preload duration : 504 ms

Скриншоты



Внимание! Раздача ведётся путём добавления новых выпусков

Внимание! Раздача ведётся путём добавления новых выпусков; при каждом добавлении создаётся новый торрент. Чтобы начать докачку нового выпуска, пользователям необходимо сделать следующее:
(1) остановить скачивание,
(2) удалить старый торрент у себя из клиента (старые выпуски удалять не надо),
(3) скачать новый торрент и запустить его у себя в клиенте вместо старого, при этом указать клиенту путь в старую папку куда и должно происходить скачивание новых выпусков.
Ваш клиент при этом должен произвести хеширование (проверку) старой папки (если не производит сам - помогите ему сделать это), и будет докачивать только те выпуски которых у вас ещё нет. Старые выпуски при этом не удаляются, а продолжают раздаваться!
Eсли вы уже удалили старые выпуски, то предотвратить повторную закачку старых выпусков можно, отжав галочку в соответствующих местах при запуске нового торрента. По возможности, желательно не удалять старые выпуски как можно дольше чтобы релизёр не столько продолжал раздавать старые выпуски, а смог сконцентрироваться на новых.
Other forum [Profile] [PM]
Display posts from previous:    
Reply to topic

The time now is: Today 04:30

All times are GMT + 3 Hours



You cannot post new topics in this forum
You cannot reply to topics in this forum
You cannot edit your posts in this forum
You cannot delete your posts in this forum
You cannot vote in polls in this forum
You cannot attach files in this forum
You cannot download files in this forum