Today is a free download without charge Download

Deep Purple with Orchestra - Live At Montreux 2011 [2011, Hard Rock, BDRip 720p]

Reply to topic
 
Author
Message

Omen ®

Longevity: 8 years 3 months

Posts: 181087

Торрент-статистика

Post 17-Mar-2013 13:13

[Quote]

Deep Purple with Orchestra - Live At Montreux 2011
-
Жанр: Hard Rock
Продолжительность: 01:52:08
Год выпуска: 2011-Описание: "Live At Montreux" записан 16 июля 2011 г. - в последний день джазового фестиваля в Монтрё. Deep Purple исполняют свои классические хиты при участии симфонического оркестра под руководством Стивена Бентли-Кляйна (Stephen "BK" Bentley-Klein). Благодаря оркестровой аранжировке знакомые песни получили дополнительную глубину и размах. Это одно из лучших выступлений Deep Purple. Музыканты получают огромное удовольствие от этого опыта. Группа, карьера которой началась в конце 1960-х, на счету которой 100 млн. проданных альбомов, не нуждается в представлении. Она продолжает регулярно писать музыку и давать концерты по всему миру. Deep Purple остается одной из лучших хард-роковых групп на планете. "Live At Montreux" лучшее тому доказательство.-Треклист:
01. Orchestral Intro
02. Highway Star
03. Hard Loving Man
04. Maybe I’m A Leo
05. Strange Kind Of Woman
06. Rapture Of The Deep
07. Woman From Tokyo
08. Contact Lost
09. When A Blind Man Cries
10. The Well Dressed Guitar
11. Knocking At Your Back Door
12. Lazy
13. No One Came
14. Don Airey Solo
15. Perfect Strangers
16. Space Truckin’
17. Smoke On The Water
18. Hush
19. Black Night-Релиз: Исходник: -Качество: BDRip 720p
Контейнер: MKV
Видео кодек: H.264
Аудио кодек: DTS, AC3
Видео: MPEG-4 AVC, 1280x720, 16:9, 29.970 fps, 6201 Kbps
Аудио 1: DTS 5.1, 96/48 kHz, 1509 kbps, 24-bit
Аудио 2: AC3 5.1, 48 kHz, 640 kbps, 16-bit
Аудио 3: FLAC 2.0, 48 kHz, 1794 Kbps, 24-bit

Доп. информация

Главы сохранены и подписаны по названиям композиций. Аудио дорожка FLAC идет отдельным файлом и полностью совместима с контейнером MKV.
При кодировке видео был использован фильтр деинтерлейса QTGMC
----[NoImage] x264 [info]: frame I:1275 Avg QP:18.30 size:109577
---[NoImage] x264 [info]: frame P:58956 Avg QP:21.58 size: 45076
---[NoImage] x264 [info]: frame B:141430 Avg QP:23.39 size: 17077
---[NoImage] x264 [info]: consecutive B-frames: 5.7% 6.4% 18.2% 33.8% 16.8% 16.6% 2.5%
---[NoImage] x264 [info]: mb I I16..4: 5.9% 76.2% 17.9%
---[NoImage] x264 [info]: mb P I16..4: 4.5% 20.0% 2.6% P16..4: 31.3% 31.2% 7.7% 1.0% 0.1% skip: 1.8%
---[NoImage] x264 [info]: mb B I16..4: 1.0% 3.3% 0.4% B16..8: 35.7% 19.7% 2.7% direct:11.7% skip:25.3% L0:41.3% L1:42.3% BI:16.4%
---[NoImage] x264 [info]: 8x8 transform intra:73.1% inter:77.0%
---[NoImage] x264 [info]: direct mvs spatial:95.4% temporal:4.6%
---[NoImage] x264 [info]: coded y,uvDC,uvAC intra: 69.5% 80.5% 49.0% inter: 31.9% 47.9% 13.3%
---[NoImage] x264 [info]: i16 v,h,dc,p: 26% 17% 6% 51%
---[NoImage] x264 [info]: i8 v,h,dc,ddl,ddr,vr,hd,vl,hu: 7% 7% 5% 10% 14% 14% 14% 14% 15%
---[NoImage] x264 [info]: i4 v,h,dc,ddl,ddr,vr,hd,vl,hu: 12% 8% 5% 9% 14% 15% 13% 12% 13%
---[NoImage] x264 [info]: i8c dc,h,v,p: 31% 25% 21% 23%
---[NoImage] x264 [info]: Weighted P-Frames: Y:27.3% UV:22.6%
---[NoImage] x264 [info]: ref P L0: 45.9% 10.3% 17.3% 6.9% 5.5% 4.7% 4.2% 3.3% 1.5% 0.4%
---[NoImage] x264 [info]: ref B L0: 78.0% 9.5% 4.9% 2.9% 2.3% 1.5% 0.9%
---[NoImage] x264 [info]: ref B L1: 94.5% 5.5%
---[NoImage] x264 [info]: kb/s:6197.13

Отчёт MediaInfo

ОбщееУникальный идентификатор : 238227105985656962191007866085330103299 (0xB338DF279DCEC58F8F84FED9A6BBAC03)Полное имя : D:\Mои раздачи\Deep.Purple.with.Orchestra-Live.At.Montreux.2011.x264.BDRip.(720p)_kaspr\Deep.Purple.with.Orchestra-Live.At.Montreux.2011.x264.BDRip.(720p)_kaspr.mkvФормат : MatroskaВерсия формата : Version 2Размер файла : 6,54 ГбайтПродолжительность : 1 ч. 52 м.Общий поток : 8349 Кбит/секНазвание фильма : Deep Purple with Orchestra - Live At Montreux (Rip by kaspr)Дата кодирования : UTC 2013-03-17 06:51:00Программа кодирования : mkvmerge v5.7.0 ('The Whirlwind') built on Aug 7 2012 14:11:40Библиотека кодирования : libebml v1.2.3 + libmatroska v1.3.0
ВидеоИдентификатор : 1Формат : AVCФормат/Информация : Advanced Video CodecПрофиль формата : [email protected]Параметр CABAC формата : ДаПараметр ReFrames формата : 8 кадровИдентификатор кодека : V_MPEG4/ISO/AVCПродолжительность : 1 ч. 52 м.Битрейт : 6201 Кбит/секШирина : 1280 пикселейВысота : 720 пикселейСоотношение сторон : 16:9Режим частоты кадров : ПостоянныйЧастота кадров : 29,970 кадров/секЦветовое пространство : YUVСубдискретизация насыщенности : 4:2:0Битовая глубина : 8 битТип развёртки : ПрогрессивнаяБит/(Пиксели*Кадры) : 0.225Размер потока : 4,73 Гбайт (72%)Заголовок : Deep Purple with Orchestra - Live At Montreux (Rip by kaspr)Библиотека кодирования : x264 core 129 r2245 bc13772Настройки программы : cabac=1 / ref=8 / deblock=1:-3:-3 / analyse=0x3:0x133 / me=umh / subme=11 / psy=1 / psy_rd=1.00:0.10 / mixed_ref=1 / me_range=32 / chroma_me=1 / trellis=2 / 8x8dct=1 / cqm=0 / deadzone=21,11 / fast_pskip=0 / chroma_qp_offset=-3 / threads=12 / lookahead_threads=2 / sliced_threads=0 / nr=0 / decimate=0 / interlaced=0 / bluray_compat=0 / constrained_intra=0 / bframes=6 / b_pyramid=2 / b_adapt=2 / b_bias=0 / direct=3 / weightb=1 / open_gop=0 / weightp=2 / keyint=300 / keyint_min=27 / scenecut=40 / intra_refresh=0 / rc_lookahead=40 / rc=2pass / mbtree=1 / bitrate=6201 / ratetol=1.0 / qcomp=0.60 / qpmin=0 / qpmax=69 / qpstep=4 / cplxblur=20.0 / qblur=0.5 / ip_ratio=1.40 / aq=1:1.00Default : ДаForced : Нет
Аудио #1Идентификатор : 2Формат : DTSФормат/Информация : Digital Theater SystemsПрофиль формата : 96/24 / CoreИдентификатор кодека : A_DTSПродолжительность : 1 ч. 52 м.Вид битрейта : ПостоянныйБитрейт : 1510 Кбит/секКаналы : 6 каналовРасположение каналов : Front: L C R, Side: L R, LFEЧастота : 96,0 КГц / 48,0 КГцБитовая глубина : 24 битМетод сжатия : С потерямиРазмер потока : 1,18 Гбайт (18%)Язык : EnglishDefault : ДаForced : Да
Аудио #2Идентификатор : 3Формат : AC-3Формат/Информация : Audio Coding 3Расширение режима : CM (complete main)Параметр Endianness формата : BigИдентификатор кодека : A_AC3Продолжительность : 1 ч. 52 м.Вид битрейта : ПостоянныйБитрейт : 640 Кбит/секКаналы : 6 каналовРасположение каналов : Front: L C R, Side: L R, LFEЧастота : 48,0 КГцБитовая глубина : 16 битМетод сжатия : С потерямиРазмер потока : 513 Мбайт (8%)Язык : EnglishDefault : НетForced : Нет
Меню00:00:00.000 : en:Highway Star00:09:01.240 : en:Hard Loving Man00:15:11.076 : en:Maybe I'm A Leo00:19:39.077 : en:Strage Kind Of Woman00:25:52.784 : en:Rapture Of The Deep00:31:43.868 : en:Woman From Tokyo00:38:03.648 : en:Contact Lost00:42:31.515 : en:When A Blind Man Cries00:46:20.377 : en:The Well Dressed Guitar00:49:13.450 : en:Knocking At Your Back Door00:55:20.283 : en:Lazy01:04:02.738 : en:No One Came01:09:37.306 : en:Don Airey Solo01:15:25.087 : en:Perfect Strangers01:21:40.562 : en:Space Truckin'01:27:01.716 : en:Smoke On The Water01:34:59.193 : en:Hush01:43:24.965 : en:Black Night
ОбщееПолное имя : D:\Mои раздачи\Deep.Purple.with.Orchestra-Live.At.Montreux.2011.x264.BDRip.(720p)_kaspr\FLAC.(Deep Purple with Orchestra - Live At Montreux).flacФормат : FLACФормат/Информация : Free Lossless Audio CodecРазмер файла : 1,41 ГбайтПродолжительность : 1 ч. 52 м.Режим общего битрейта : ПеременныйОбщий поток : 1794 Кбит/сек
АудиоФормат : FLACФормат/Информация : Free Lossless Audio CodecПродолжительность : 1 ч. 52 м.Вид битрейта : ПеременныйБитрейт : 1794 Кбит/секКаналы : 2 каналаЧастота : 48,0 КГцБитовая глубина : 24 битРазмер потока : 1,41 Гбайт (100%)Библиотека кодирования : libFLAC 1.2.1 (UTC 2007-09-17)

Скриншоты


Other forum [Profile] [PM]
Similar theme
Forum Topic Author Torrent Replies Last Post
./templates/default/images/folder_dl.gif Rock (Hard Rock) Deep Purple - Whoosh! (Limited Edition) - 2020 [MP3, tracks, 320 kbps] sergej644
1 | 0

0 | 746

1

2020-08-27 19:39
sergej644 Latest
Display posts from previous:    
Reply to topic

The time now is: Today 07:39

All times are GMT + 3 Hours



You cannot post new topics in this forum
You cannot reply to topics in this forum
You cannot edit your posts in this forum
You cannot delete your posts in this forum
You cannot vote in polls in this forum
You cannot attach files in this forum
You cannot download files in this forum