Today is a free download without charge Download

The Prodigy - Live World's On Fire ( 2011 ) BDRip 720i

Reply to topic
 
Author
Message

Delia ®

Gender:

Longevity: 10 years

Posts: 1821

Торрент-статистика

Post 04-Jul-2011 19:58

[Quote]

The Prodigy - Live World's On Fire Год выпуска:2011
Жанр:Electronic rock, Synthpunk, Alternative rock, Electronic punk, Drum n Bass, Electronica, Dance-punk, Rave
Выпущено: The End Records
Продолжительность:01:09:01
Перевод:не требуется
Состав:Кейт Флинт (вокал), Максим Реалити (MC, вокал), Лиам Хaулетт (синтезаторы и т.д.), Роб Холлидей (гитара), Лео Крабтри (ударные)
Описание: World’s on Fire ( Мир в огне) — видеоконцерт и первый концертный альбом британской электронной группы The Prodigy, выпущенный на blu-ray 24 мая 2011 года. Фильм-концерт демонстрировался в кинотеатрах. Съёмки проходили на фестивале Warrior’s Dance, организованном участниками коллектива в городе Милтон-Кинс 24 июля 2010 года.
Несколько причин посмотреть Warrior's Dance festival на большом экране с великолепным звуком:
1) Шоу признано одним из лучших когда-либо записанных концертов.
2) Снято при помощи 20 камер в Full HD качестве.
3) За живой звук директор шоу получил награду MTV VMA.
Качество:BDRip720i
Формат: MKV
Видео кодек: H.264
Аудио кодек: AC-3
Видео:English, 7081 Кбит/сек, 1280*544 (2,35:1), в 29,970 кадр/сек, AVC ([email protected])
Аудио: 640 Кбит/сек, 48,0 КГц, 16 бит, 6 канала(ов), AC-3
Аудио:745 Мбайт, 1 ч. 8 м.1510 Кбит/сек, 48,0 КГц, 24 бит, 6 канала(ов), DTS | отдельно на народ.ру

Треклист:

01. Intro (Live)
02. Breathe (Live)
03. Omen (Live)
04. Colours (Live)
05. Thunder (Live)
06. Warriors Dance (Live)
07. Firestarter (Live)
08. Run With The Wolves (Live)
09. Weather Experience (Live)
10. Voodoo People (Live)
11. Omen Reprise (Live)
12. Invaders Must Die (Live)
13. Smack My Bitch Up (Live)
14. Take Me To The Hospital (Live)
15. Everybody In The Place (Live)
16. Their Law (Live)
17. Out of Space (Live)

MI:

Общее
Уникальный идентификатор : 214307245603383658997278089265106188563 (0xA13A12FC31970AC4B9E5A57F4D34F913)
Полное имя : F:\торрент\The.Prodigy.Live.Worlds.On.Fire.2011.(720i).mkv
Формат : Matroska
Размер файла : 3,80 Гбайт
Продолжительность : 1 ч. 9 м.
Общий поток : 7878 Кбит/сек
Дата кодирования : UTC 2011-07-04 15:16:44
Программа кодирования : mkvmerge v4.8.0 ('I Got The...') built on May 24 2011 03:12:58
Библиотека кодирования : libebml v1.2.0 + libmatroska v1.1.0
Видео
Идентификатор : 1
Формат : AVC
Формат/Информация : Advanced Video Codec
Профиль формата : [email protected]
Параметр CABAC формата : Да
Параметр ReFrames формата : 10 кадры
Идентификатор кодека : V_MPEG4/ISO/AVC
Продолжительность : 1 ч. 9 м.
Битрейт : 7081 Кбит/сек
Ширина : 1280 пикс.
Высота : 544 пикс.
Соотношение сторон : 2,35:1
Частота кадров : 29,970 кадр/сек
Цветовое пространство : YUV
Подвыборка цветности : 4:2:0
Битовая глубина : 8 бит
Тип развёртки : Прогрессивная
Бит/(Пиксели*Кадры) : 0.339
Размер потока : 3,41 Гбайт (90%)
Библиотека кодирования : x264 core 115 r2008 4c552d8
Настройки программы : cabac=1 / ref=10 / deblock=1:-2:-2 / analyse=0x3:0x133 / me=umh / subme=10 / psy=1 / psy_rd=1.00:0.15 / mixed_ref=1 / me_range=32 / chroma_me=1 / trellis=2 / 8x8dct=1 / cqm=0 / deadzone=21,11 / fast_pskip=0 / chroma_qp_offset=-3 / threads=6 / sliced_threads=0 / nr=0 / decimate=1 / interlaced=0 / bluray_compat=0 / constrained_intra=0 / bframes=8 / b_pyramid=2 / b_adapt=2 / b_bias=0 / direct=3 / weightb=1 / open_gop=0 / weightp=2 / keyint=250 / keyint_min=24 / scenecut=40 / intra_refresh=0 / rc_lookahead=50 / rc=crf / mbtree=1 / crf=19.5 / qcomp=0.70 / qpmin=10 / qpmax=51 / qpstep=4 / vbv_maxrate=50000 / vbv_bufsize=62000 / crf_max=0.0 / nal_hrd=none / ip_ratio=1.40 / aq=1:1.00
Язык : English
Аудио
Идентификатор : 2
Формат : AC-3
Формат/Информация : Audio Coding 3
Расширение режима : CM (complete main)
Идентификатор кодека : A_AC3
Продолжительность : 1 ч. 9 м.
Вид битрейта : Постоянный
Битрейт : 640 Кбит/сек
Канал(ы) : 6 канала(ов)
Расположение каналов : Front: L C R, Side: L R, LFE
Частота : 48,0 КГц
Битовая глубина : 16 бит
Метод сжатия : С потерями
Размер потока : 316 Мбайт (8%)

Скриншоты

                       

_________________
Человек – это канат, натянутый между животным и сверхчеловеком, – канат над пропастью.
В человеке ценно то, что он мост, а не цель. Фридрих Ницше


Last edited by Delia on 2011-08-20 21:07; edited 3 times in total
Other forum [Profile] [PM]
Display posts from previous:    
Reply to topic

The time now is: Today 22:00

All times are GMT + 3 Hours



You cannot post new topics in this forum
You cannot reply to topics in this forum
You cannot edit your posts in this forum
You cannot delete your posts in this forum
You cannot vote in polls in this forum
You cannot attach files in this forum
You cannot download files in this forum