Today is a free download without charge Download

С. Дарко / S. Darko / Donnie Darko 2 (Крис Фишер / Chris Fisher) [2009, США, фантастика, триллер, криминал, детектив, BDRemux 1080p] DVO + VO + Original (Eng) + Subs (Rus, Eng)

Reply to topic
 
Author
Message

Omen ®

Longevity: 8 years 5 months

Posts: 181087

Торрент-статистика

Post 17-Mar-2013 09:10

[Quote]

С. Дарко / S. Darko / Donnie Darko 2 Страна: США
Студия: Silver Nitrate, Newmarket Capital Group, ...
Жанр: фантастика, триллер, криминал, детектив
Год выпуска: 2009
Продолжительность: 01:43:09
Перевод:
  • Профессиональный (двухголосый закадровый)
  • Одноголосый закадровый
Cубтитры: русские, английские
Оригинальная аудиодорожка: английская
Режиссер: Крис Фишер / Chris Fisher
В ролях: Дэйви Чейз, Бриана Эвиган, Джеймс Лэфферти, Эд Вествик, Уолтер Платц, Джон Хоукс, Брэт Робертс, Джексон Рэтбоун, Элизабет Беркли, Барбара Тарбак
Описание:
Действие разворачивается спустя семь лет после событий первого фильма, вокруг вымахавшей восемнадцатилетней Саманты Дарко и ее лучшей подруги Кори.
Отправившихся в путешествие до Лос-Анджелеса подростков начинает посещать странное видение.
- -Тип релиза: BDRemux 1080p
Контейнер: MKV
Видео: AVC (x264), 1920x1080 (16:9) at 23,976 fps, ~34000 Кbps
Аудио 1: AC3; 192 Kbps; CBR; 2 ch; 48 khz | P, DVO |
Аудио 2: AC3; 192 Kbps; CBR; 2 ch; 48 khz | VO |
Аудио 3: DTS HDMA; 3523 Kbps; VBR; 6 ch; 48 khz; 24 bit | Английский | (DTS Core: 5.1 / 48 kHz / 1509 kbps / 24-bit)
Аудио 4: AC3; 640 Kbps; CBR; 2 ch; 48 khz | Английский | - Commentary: Крис Фишер и Съемочная группа
Формат субтитров: softsub (SRT)

Скриншоты || x264 Info || MediaInfo || Notes

MediaInfo

Код:
Общее
Уникальный идентификатор                 : 196113216043523913931024191414202719821 (0x938A081224725D9ABA3D09022676DE4D)
Полное имя                               : С. Дарко.2009.P.1080p.BluRay.Remux.x264-GORESEWAGE.mkv
Формат                                   : Matroska
Версия формата                           : Version 4 / Version 2
Размер файла                             : 27,7 Гбайт
Продолжительность                        : 1 ч. 43 м.
Режим общего битрейта                    : Переменный
Общий поток                              : 38,4 Мбит/сек
Название фильма                          : GORESEWAGE
Дата кодирования                         : UTC 2013-03-16 17:29:36
Программа кодирования                    : mkvmerge v6.1.0 ('Old Devil') built on Mar  2 2013 14:32:37
Библиотека кодирования                   : libebml v1.3.0 + libmatroska v1.4.0
Видео
Идентификатор                            : 1
Формат                                   : AVC
Формат/Информация                        : Advanced Video Codec
Профиль формата                          : [email protected]
Параметр CABAC формата                   : Да
Параметр ReFrames формата                : 4 кадра
Идентификатор кодека                     : V_MPEG4/ISO/AVC
Продолжительность                        : 1 ч. 43 м.
Вид битрейта                             : Переменный
Максимальный битрейт                     : 37,0 Мбит/сек
Ширина                                   : 1920 пикселей
Высота                                   : 1080 пикселей
Соотношение сторон                       : 16:9
Режим частоты кадров                     : Постоянный
Частота кадров                           : 23,976 кадра/сек
Цветовое пространство                    : YUV
Субдискретизация насыщенности            : 4:2:0
Битовая глубина                          : 8 бит
Тип развёртки                            : Прогрессивная
Заголовок                                : 34000 kbps / 1080p / 23,976 fps / 16:9 / High Profile 4.1
Язык                                     : English
Default                                  : Да
Forced                                   : Нет
Основные цвета                           : BT.709
Характеристики трансфера                 : BT.709
Коэффициенты матрицы                     : BT.709
Аудио #1
Идентификатор                            : 2
Формат                                   : AC-3
Формат/Информация                        : Audio Coding 3
Расширение режима                        : CM (complete main)
Параметр Endianness формата              : Big
Идентификатор кодека                     : A_AC3
Продолжительность                        : 1 ч. 43 м.
Вид битрейта                             : Постоянный
Битрейт                                  : 192 Кбит/сек
Каналы                                   : 2 канала
Расположение каналов                     : Front: L R
Частота                                  : 48,0 КГц
Битовая глубина                          : 16 бит
Метод сжатия                             : С потерями
Размер потока                            : 142 Мбайт (0%)
Заголовок                                : P, DVO
Язык                                     : Russian
Default                                  : Да
Forced                                   : Нет
Аудио #2
Идентификатор                            : 3
Формат                                   : AC-3
Формат/Информация                        : Audio Coding 3
Расширение режима                        : CM (complete main)
Параметр Endianness формата              : Big
Идентификатор кодека                     : A_AC3
Продолжительность                        : 1 ч. 43 м.
Вид битрейта                             : Постоянный
Битрейт                                  : 192 Кбит/сек
Каналы                                   : 2 канала
Расположение каналов                     : Front: L R
Частота                                  : 48,0 КГц
Битовая глубина                          : 16 бит
Метод сжатия                             : С потерями
Размер потока                            : 142 Мбайт (0%)
Заголовок                                : VO
Язык                                     : Russian
Default                                  : Нет
Forced                                   : Нет
Аудио #3
Идентификатор                            : 4
Формат                                   : DTS
Формат/Информация                        : Digital Theater Systems
Профиль формата                          : MA / Core
Режим                                    : 16
Параметр Endianness формата              : Big
Идентификатор кодека                     : A_DTS
Продолжительность                        : 1 ч. 43 м.
Вид битрейта                             : Переменный
Битрейт                                  : Неизвестно / 1509 Кбит/сек
Каналы                                   : 6 каналов
Расположение каналов                     : Front: L C R, Side: L R, LFE
Частота                                  : 48,0 КГц
Битовая глубина                          : 24 бит
Метод сжатия                             : Без потерь / Lossy
Заголовок                                : 5.1 / 48 kHz / 3523 kbps / 24-bit (DTS Core: 5.1 / 48 kHz / 1509 kbps / 24-bit)
Язык                                     : English
Default                                  : Нет
Forced                                   : Нет
Аудио #4
Идентификатор                            : 5
Формат                                   : AC-3
Формат/Информация                        : Audio Coding 3
Расширение режима                        : CM (complete main)
Параметр Endianness формата              : Big
Идентификатор кодека                     : A_AC3
Продолжительность                        : 1 ч. 43 м.
Вид битрейта                             : Постоянный
Битрейт                                  : 640 Кбит/сек
Каналы                                   : 2 канала
Расположение каналов                     : Front: L R
Частота                                  : 48,0 КГц
Битовая глубина                          : 16 бит
Метод сжатия                             : С потерями
Размер потока                            : 472 Мбайт (2%)
Заголовок                                : commentary by Chris Fisher and the crew
Язык                                     : English
Default                                  : Нет
Forced                                   : Нет
Текст #1
Идентификатор                            : 6
Формат                                   : UTF-8
Идентификатор кодека                     : S_TEXT/UTF8
Идентификатор кодека/Информация          : UTF-8 Plain Text
Язык                                     : English
Default                                  : Нет
Forced                                   : Нет
Текст #2
Идентификатор                            : 7
Формат                                   : UTF-8
Идентификатор кодека                     : S_TEXT/UTF8
Идентификатор кодека/Информация          : UTF-8 Plain Text
Язык                                     : Russian
Default                                  : Нет
Forced                                   : Нет
Меню
00:00:00.000                             : en:Nightmares Rule / Main Title
00:02:06.501                             : en:Car Trouble
00:06:35.186                             : en:A Helping Hand
00:11:48.582                             : en:The Man On The Windmill
00:14:10.808                             : en:Message In A Bottle
00:17:39.600                             : en:All The Time In The World
00:22:03.947                             : en:The Princess Needs Help
00:24:20.542                             : en:Getting Wasted
00:27:45.955                             : en:To Be Somebody Else
00:32:02.587                             : en:Why Me?
00:34:26.105                             : en:Bandits On The Run
00:35:34.924                             : en:Forces Are At Work
00:38:32.893                             : en:The Mask
00:41:40.664                             : en:Better Things To Do
00:44:01.847                             : en:Strange, Beautiful Magic
00:46:06.346                             : en:It's Already Begun
00:49:58.954                             : en:What's Real, What's Not?
00:52:27.602                             : en:Last Chance
00:55:07.512                             : en:Taking It All Back
00:58:10.111                             : en:When You Die
01:00:26.622                             : en:Everything's Changing
01:03:40.274                             : en:God's Will
01:10:52.248                             : en:Eleven Hours Remain
01:13:19.061                             : en:Holes In Their Hearts
01:20:06.802                             : en:Fireworks
01:25:50.353                             : en:Only You
01:28:50.325                             : en:Wake Up, Start Over
01:37:28.384                             : en:End Titles
Other forum [Profile] [PM]

Dracula

Longevity: 7 years 6 months

Posts: 11225

Торрент-статистика

Post 30-Mar-2013 09:12 (after 13 days)

Топик был перенесен из форума Зарубежное кино (HD Video) в форум Зарубежное кино


Delia
 
Display posts from previous:    
Reply to topic

The time now is: Today 11:57

All times are GMT + 3 Hours



You cannot post new topics in this forum
You cannot reply to topics in this forum
You cannot edit your posts in this forum
You cannot delete your posts in this forum
You cannot vote in polls in this forum
You cannot attach files in this forum
You cannot download files in this forum