Today is a free download without charge Download

Васильки [1 серии из 4] (2013) SATRip [Обновляемая]

Reply to topic
 
Author
Message

UndegraundMen ®

Longevity: 8 years 9 months

Posts: 25145

Торрент-статистика

Post 17-Mar-2013 02:41

[Quote]

Васильки [4 серии из 4] (2013) SATRip- Русское название: Васильки
Выпущено: Россия
Год выпуска: 2013
Жанр: Мелодрама
Перевод: Оригинал (Русский)
Субтитры: Отсутствуют
kinopoisk
Режиссер: Игорь Мужжухин
Актеры: Елена Шилова, Иван Жидков, Петр Баранчеев, Анна Сильчук, Денис Васильев, Татьяна Жукова-Киртбая, Юлия Юрченко, Людмила Уланова, Полина Пахомова, Макс Бирюков, Дмитрий Куделин, Анна Шевченко, Галина Гусева
Описание фильма:
Оля, простая деревенская девушка, безответно влюблена в красавца и местного героя Васю. Ради своей любви Оля отказывается от музыкального колледжа, о котором всю жизнь мечтала, и поступает вслед за Васей в сельхозучилище.
По стечению обстоятельств героине удается урвать несколько часов счастья рядом с любимым. Однако последствия оказываются слишком тяжелыми: Вася бросает учебу и, не попрощавшись с Олей, уезжает на военную службу, а девушка вскоре понимает, что беременна..
Продолжительность: 4 ~ 00:47
Качество видео: SATRip
Видеокодек: DivX 5
Битрейт видео: ~1476 Kbit/s
Размер кадра: 704 х 384
Аудиокодек: MP3, 2.0
Битрейт аудио: 128 Kbit/s

MediaInfo

Общее
Полное имя : D:\Торренты\ФИЛЬМЫ торента\Васильки. 2013. SATRip\Васильки.01.avi
Формат : AVI
Формат/Информация : Audio Video Interleave
Размер файла : 546 Мбайт
Продолжительность : 47 м.
Общий поток : 1617 Кбит/сек
Библиотека кодирования : Boilsoft AVI tool build 1/release
Видео
Идентификатор : 0
Формат : MPEG-4 Visual
Профиль формата : [email protected]
Параметр BVOP формата : Нет
Параметр QPel формата : Нет
Параметр GMC формата : Без точки перехода
Параметр матрицы формата : Default (H.263)
Идентификатор кодека : DX50
Идентификатор кодека/Подсказка : DivX 5
Продолжительность : 47 м.
Битрейт : 1476 Кбит/сек
Ширина : 704 пикс.
Высота : 384 пикс.
Соотношение сторон : 16:9
Частота кадров : 25,000 кадр/сек
Цветовое пространство : YUV
Подвыборка цветности : 4:2:0
Битовая глубина : 8 бит
Тип развёртки : Прогрессивная
Метод сжатия : С потерями
Бит/(Пиксели*Кадры) : 0.218
Размер потока : 498 Мбайт (91%)
Библиотека кодирования : XviD 1.2.1 (UTC 2008-12-04)
Аудио
Идентификатор : 1
Формат : MPEG Audio
Версия формата : Version 1
Профиль формата : Layer 3
Режим : Joint stereo
Расширение режима : MS Stereo
Идентификатор кодека : 55
Идентификатор кодека/Подсказка : MP3
Продолжительность : 47 м.
Вид битрейта : Постоянный
Битрейт : 128 Кбит/сек
Каналы : 2 канала
Частота : 48,0 КГц
Метод сжатия : С потерями
Размер потока : 43,2 Мбайт (8%)
Выравнивание : Соединение по промежуткам
Продолжительность промежутка : 24 мс. (0,60 видеокадр)
Время предзагрузки промежутка : 504 ms
Библиотека кодирования : LAME3.98.2
Скриншоты:
           
Время раздачи: 24/7 по возможности
Other forum [Profile] [PM]
Display posts from previous:    
Reply to topic

The time now is: Today 23:44

All times are GMT + 3 Hours



You cannot post new topics in this forum
You cannot reply to topics in this forum
You cannot edit your posts in this forum
You cannot delete your posts in this forum
You cannot vote in polls in this forum
You cannot attach files in this forum
You cannot download files in this forum