Today is a free download without charge Download

Будет светлым день [1 серии из 4] (2013) SATRip [Обновляемая]

Reply to topic
 
Author
Message

UndegraundMen ®

Longevity: 8 years 9 months

Posts: 25145

Торрент-статистика

Post 16-Mar-2013 17:14

[Quote]

Будет светлым день [1 серии из 4] (2013) SATRip [Обновляемая]- Русское название: Будет светлым день
Выпущено: Россия
Год выпуска: 2013
Жанр: Мелодрама
Перевод: Оригинал (Русский)
Субтитры: Отсутствуют

Дата российской премьеры: 16 марта 2013
Режиссер: Олег Штром
Актеры: Анна Попова, Станислав Бондаренко, Екатерина Андрейченко, Татьяна Новик, Александр Никитин (IV), Алёна Яковлева, Руслан Ягудин, Валерий Шумский, Татьяна Шумская, Ирина Ефремова, Владимир Лаптев
Описание фильма:
Даниил - редактор журнала, его жена, Елена – по образованию переводчица. Они поженились сразу после окончания университета. Вскоре после их свадьбы, в страшной аварии погибает мать Даниила, а его отец становится инвалидом. Елена посвящает себя уходу за свекром и его реабилитации. Полностью погруженная в заботы, она не замечает, что муж все чаще задерживается на работе. В успешного и молодого Даниила влюблено большинство сотрудниц и дочь главы издательского дома, Ирина - не исключение. Даниил отвечает ей взаимностью. Через некоторое время Ирина объявляет, что ждет ребенка. Лена узнает о том, что муж ей изменяет, а его любовница беременна. Она принимает решение уйти от мужа и устроиться на работу. Но без опыта найти работу очень не просто. Поиски работы приводят её в компанию Николая Егорова, где ей предстоит заново научиться строить свою жизнь и карьеру. Порядочность, отзывчивость и доброта Елены не могут остаться незамеченными, а сложности и горести – должны отступить.
Продолжительность: 1 х ~ 00:44:00 серия
Качество видео: SATRip
Видеокодек: DivX 5
Битрейт видео: ~1499 Kbit/s
Размер кадра: 704 х 384
Аудиокодек: MP3, 2.0
Битрейт аудио: 128 Kbit/sВнимание! Раздача ведётся путём добавления новых серий

Внимание! Раздача ведётся путём добавления новых серий. Описание обновления торрента.

Внимание! Раздача ведётся путём добавления новых серий; при каждом добавлении создётся новый торрент. Чтобы начать докачку новой серии, пользователям необходимо сделать следующее:
(1) остановить скачивание,
(2) удалить старый торрент у себя из клиента (старые серии удалять не надо),
(3) скачать новый торрент и запустить его у себя в клиенте вместо старого, при этом указать клиенту путь в старую папку куда и должно происходить скачивание новых серий.
Ваш клиент при этом должен произвести хеширование (проверку) старой папки (если не производит сам - помогите ему сделать это), и будет докачивать только те серии которых у вас ещё нет. Старые серии при этом не удаляются, а продолжают раздаваться!
Eсли вы уже удалили старые серии, то предотвратить повторную закачку старых серий можно, отжав галочку в соответсвующих местах при запуске нового торрента. По возможности, желательно не удалять старые серии как можно дольше чтобы релизёр не столько продолжал раздавать старые серии, а смог сконцентрироваться на новых.

MediaInfo

Общее
Полное имя : D:\Торренты\ФИЛЬМЫ торента\Будет светлым день. 2013. SATRip\Будет светлым день.01.avi
Формат : AVI
Формат/Информация : Audio Video Interleave
Размер файла : 520 Мбайт
Продолжительность : 44 м.
Общий поток : 1636 Кбит/сек
Программа кодирования : VirtualDubMod 1.5.10.2 (build 2540/release)
Библиотека кодирования : VirtualDub build 29808/release
Видео
Идентификатор : 0
Формат : MPEG-4 Visual
Параметр BVOP формата : Нет
Параметр QPel формата : Нет
Параметр GMC формата : Без точки перехода
Параметр матрицы формата : Default (H.263)
Идентификатор кодека : DX50
Идентификатор кодека/Подсказка : DivX 5
Продолжительность : 44 м.
Битрейт : 1499 Кбит/сек
Ширина : 704 пикс.
Высота : 384 пикс.
Соотношение сторон : 16:9
Частота кадров : 25,000 кадр/сек
Цветовое пространство : YUV
Подвыборка цветности : 4:2:0
Битовая глубина : 8 бит
Тип развёртки : Прогрессивная
Метод сжатия : С потерями
Бит/(Пиксели*Кадры) : 0.222
Размер потока : 476 Мбайт (92%)
Библиотека кодирования : DivX 6.8.5 (UTC 2009-08-20)
Аудио
Идентификатор : 1
Формат : MPEG Audio
Версия формата : Version 1
Профиль формата : Layer 3
Режим : Joint stereo
Идентификатор кодека : 55
Идентификатор кодека/Подсказка : MP3
Продолжительность : 44 м.
Вид битрейта : Постоянный
Битрейт : 128 Кбит/сек
Каналы : 2 канала
Частота : 48,0 КГц
Метод сжатия : С потерями
Размер потока : 40,6 Мбайт (8%)
Выравнивание : Соединение по промежуткам
Продолжительность промежутка : 40 мс. (1,00 видеокадр)
Время предзагрузки промежутка : 504 ms
Библиотека кодирования : LAME3.90.3
Скриншоты:
           
Время раздачи: 24/7 по возможности
Other forum [Profile] [PM]
Display posts from previous:    
Reply to topic

The time now is: Today 06:21

All times are GMT + 3 Hours



You cannot post new topics in this forum
You cannot reply to topics in this forum
You cannot edit your posts in this forum
You cannot delete your posts in this forum
You cannot vote in polls in this forum
You cannot attach files in this forum
You cannot download files in this forum