Today is a free download without charge Download

Особый случай / Серии: 01 из ?? [2013, Драма, Мистика, Криминал, DVB]

Reply to topic
 
Author
Message

Omen ®

Longevity: 9 years 1 month

Posts: 181086

Торрент-статистика

Post 16-Mar-2013 16:50

[Quote]

Особый случай
Год выпуска: 2013
Производство: ООО "ТВ партнер"
Жанр: Драма, Мистика, Криминал
Продолжительность: 00:45:00
Субтитры: Отсутствуют
В ролях: Евгения Чиркова, Виталий Кудрявцев, Светлана Варецкая, Александр Курицын, Мария Кононова, Иван Межанский и другие.
Описание: У любой невероятной истории всегда есть несколько объяснений: мистическое, фантастическое, рациональное. И только одно из них правильное. Охотники за неизвестным из Агентства чрезвычайно запутанных ситуаций распутают любой "особый случай".
Сэмпл: http://multi-up.com/843458
Доп. информация: Релиз -

Рип чистый (Прямой поток). Без посторонних надписей. Выкладывается как есть.
Качество: DVB
Формат: MPG
Видео кодек: MPG2
Аудио кодек: MP2
Видео: 720x576 @ 768x576 (4:3) 25.00fps 5 805 Kbps, 0.560 bit/pixel
Аудио: MPEG Audio 48000Hz Intensity Stereo + MS Stereo 192 Кбит/сек

Скриншоты


MI

GeneralComplete name : N:\ВЫКЛАДКА\DVB\Сериалы\Особый случай (2013, Драма, Мистика, Криминал, DVB) (MYDIMKA)\01 серия.mpgFormat : MPEG-PSFile size : 1.88 GiBDuration : 43mn 59sOverall bit rate mode : VariableOverall bit rate : 6 118 Kbps
VideoID : 224 (0xE0)Format : MPEG VideoFormat version : Version 2Format profile : [email protected] settings, BVOP : YesFormat settings, Matrix : CustomFormat settings, GOP : VariableDuration : 43mn 59sBit rate mode : VariableBit rate : 5 805 KbpsMaximum bit rate : 15.0 MbpsWidth : 720 pixelsHeight : 576 pixelsDisplay aspect ratio : 4:3Frame rate : 25.000 fpsStandard : PALColor space : YUVChroma subsampling : 4:2:0Bit depth : 8 bitsScan type : InterlacedScan order : Top Field FirstCompression mode : LossyBits/(Pixel*Frame) : 0.560Stream size : 1.78 GiB (95%)
AudioID : 192 (0xC0)Format : MPEG AudioFormat version : Version 1Format profile : Layer 2Duration : 43mn 59sBit rate mode : ConstantBit rate : 192 KbpsChannel(s) : 2 channelsSampling rate : 48.0 KHzCompression mode : LossyDelay relative to video : -30msStream size : 60.4 MiB (3%)

Внимание! Раздача ведётся путём добавления новых выпусков

Внимание! Раздача ведётся путём добавления новых выпусков; при каждом добавлении создётся новый торрент. Чтобы начать докачку нового выпуска, пользователям необходимо сделать следующее:
(1) остановить скачивание,
(2) удалить старый торрент у себя из клиента (старые выпуски удалять не надо),
(3) скачать новый торрент и запустить его у себя в клиенте вместо старого, при этом указать клиенту путь в старую папку куда и должно происходить скачивание новых выпусков.
Ваш клиент при этом должен произвести хеширование (проверку) старой папки (если не производит сам - помогите ему сделать это), и будет докачивать только те выпуски которых у вас ещё нет. Старые выпуски при этом не удаляются, а продолжают раздаваться!
Eсли вы уже удалили старые выпуски, то предотвратить повторную закачку старых выпусков можно, отжав галочку в соответсвующих местах при запуске нового торрента. По возможности, желательно не удалять старые выпуски как можно дольше чтобы релизёр не столько продолжал раздавать старые выпуски, а смог сконцентрироваться на новых.
Other forum [Profile] [PM]
Display posts from previous:    
Reply to topic

The time now is: Today 05:56

All times are GMT + 3 Hours



You cannot post new topics in this forum
You cannot reply to topics in this forum
You cannot edit your posts in this forum
You cannot delete your posts in this forum
You cannot vote in polls in this forum
You cannot attach files in this forum
You cannot download files in this forum