Today is a free download without charge Download

Надежда уходит последней / Серии: 1-12 из 12 (Евгений Соколов) [2004, мелодрама, DVDRip - AVC]

Reply to topic
 
Author
Message

Omen ®

Longevity: 9 years 1 month

Posts: 181086

Торрент-статистика

Post 16-Mar-2013 16:50

[Quote]

Надежда уходит последней- Год выпуска: 2004
Производство: Ментор синема
Жанр: мелодрама
Продолжительность: ~ 00:52:00
Субтитры: нет-Режиссёр: Евгений Соколов-В ролях: Анна Герм, Нонна Гришаева, Анна Терехова, Александр Яцко, Дмитрий Орлов, Людмила Чурсина, Любовь Полищук, Борис Химичев, Егор Баринов, Михаил Горевой.-Описание: Эта реальная и в то же время полуфантастическая история произошла с одной из наших соотечественниц в середине 90-х годов. Судьбу главной героини можно было бы назвать «осуществлением русской мечты», да только ключи от своего счастья ей пришлось искать на самом дне жизни. Однажды ей пришлось стать сильной и мужественной. Она смогла многое и, оказавшись в крайних обстоятельствах, собрала в кулак остатки веры и надежды и добилась невероятного успеха!-Доп. Информация: Спасибо schebetyk за предоставленный исходник!-Любая реклама ОТСУТСТВУЕТ!!!-Сэмпл-Качество: DVDRip - AVC
Формат: MKV
Видео кодек: H.264
Аудио кодек: AC3
Видео: x264, 712 х 426**759 х 426 (16:9), 25,000 кадр/сек, ~ 1505 Кбит/сек, ~ 0.198 bit/pixel
Аудио: AC-3, 48.0 KHz, 2 канала(ов), 256 kbs

MI

Complete name : Надежда уходит последней.01 серия.2004.DVDRip-AVC.Metla111.mkv
Format : Matroska
Format version : Version 2
File size : 650 MiB
Duration : 51mn 34s
Overall bit rate : 1 763 Kbps
Encoded date : UTC 2013-02-27 06:52:57
Writing application : mkvmerge v5.8.0 ('No Sleep / Pillow') built on Sep 2 2012 15:37:04
Writing library : libebml v1.2.3 + libmatroska v1.3.0
Video
ID : 1
Format : AVC
Format/Info : Advanced Video Codec
Format profile : [email protected]
Format settings, CABAC : Yes
Format settings, ReFrames : 10 frames
Codec ID : V_MPEG4/ISO/AVC
Duration : 51mn 34s
Bit rate : 1 505 Kbps
Width : 712 pixels
Height : 426 pixels
Display aspect ratio : 16:9
Original display aspect ratio : 16:9
Frame rate mode : Constant
Frame rate : 25.000 fps
Color space : YUV
Chroma subsampling : 4:2:0
Bit depth : 8 bits
Scan type : Progressive
Bits/(Pixel*Frame) : 0.198
Stream size : 543 MiB (83%)
Writing library : x264 core 125 r2208 d9d2288
Encoding settings : cabac=1 / ref=10 / deblock=1:-3:-3 / analyse=0x3:0x113 / me=umh / subme=9 / psy=1 / psy_rd=1.00:0.20 / mixed_ref=1 / me_range=32 / chroma_me=1 / trellis=2 / 8x8dct=1 / cqm=0 / deadzone=21,11 / fast_pskip=1 / chroma_qp_offset=-3 / threads=12 / lookahead_threads=2 / sliced_threads=0 / nr=0 / decimate=0 / interlaced=0 / bluray_compat=0 / constrained_intra=0 / bframes=8 / b_pyramid=2 / b_adapt=2 / b_bias=0 / direct=3 / weightb=1 / open_gop=0 / weightp=2 / keyint=250 / keyint_min=25 / scenecut=40 / intra_refresh=0 / rc=2pass / mbtree=0 / bitrate=1505 / ratetol=1.0 / qcomp=0.70 / qpmin=0 / qpmax=69 / qpstep=4 / cplxblur=20.0 / qblur=0.5 / ip_ratio=1.40 / pb_ratio=1.30 / aq=1:1.00
Default : Yes
Forced : No
Color primaries : BT.601 PAL
Transfer characteristics : BT.470 System B, BT.470 System G
Matrix coefficients : BT.601
Audio
ID : 2
Format : AC-3
Format/Info : Audio Coding 3
Mode extension : CM (complete main)
Format settings, Endianness : Big
Codec ID : A_AC3
Duration : 51mn 34s
Bit rate mode : Constant
Bit rate : 256 Kbps
Channel(s) : 2 channels
Channel positions : Front: L R
Sampling rate : 48.0 KHz
Bit depth : 16 bits
Compression mode : Lossy
Stream size : 94.4 MiB (15%)
Default : Yes
Forced : No

Log - x264

raw [info]: 712x426p 16:15 @ 25/1 fps (cfr)
x264 [info]: using SAR=16/15
x264 [info]: using cpu capabilities: MMX2 SSE2Fast SSSE3 FastShuffle SSE4.2 AVX XOP FMA4 FMA3 SSEMisalign LZCNT BMI1 TBM
x264 [info]: profile High, level 3.1
x264 [info]: frame I:459 Avg QP:16.14 size: 44440
x264 [info]: frame P:19230 Avg QP:18.59 size: 16327
x264 [info]: frame B:57661 Avg QP:20.51 size: 4298
x264 [info]: consecutive B-frames: 2.6% 5.2% 15.0% 21.6% 20.1% 33.5% 1.7% 0.1% 0.2%
x264 [info]: mb I I16..4: 9.5% 67.4% 23.0%
x264 [info]: mb P I16..4: 0.5% 11.3% 1.9% P16..4: 37.5% 30.3% 16.0% 0.0% 0.0% skip: 2.5%
x264 [info]: mb B I16..4: 0.0% 0.8% 0.2% B16..8: 41.2% 11.5% 2.7% direct: 5.3% skip:38.4% L0:33.0% L1:43.3% BI:23.7%
x264 [info]: 8x8 transform intra:80.3% inter:48.9%
x264 [info]: direct mvs spatial:98.2% temporal:1.8%
x264 [info]: coded y,uvDC,uvAC intra: 95.9% 86.9% 56.3% inter: 27.4% 27.5% 9.2%
x264 [info]: i16 v,h,dc,p: 16% 5% 33% 46%
x264 [info]: i8 v,h,dc,ddl,ddr,vr,hd,vl,hu: 21% 11% 7% 7% 10% 13% 9% 12% 10%
x264 [info]: i4 v,h,dc,ddl,ddr,vr,hd,vl,hu: 23% 8% 3% 7% 13% 16% 11% 11% 9%
x264 [info]: i8c dc,h,v,p: 32% 22% 27% 20%
x264 [info]: Weighted P-Frames: Y:3.0% UV:1.3%
x264 [info]: ref P L0: 47.9% 13.5% 18.3% 4.3% 4.8% 2.7% 3.2% 1.5% 1.9% 1.4% 0.5% 0.0%
x264 [info]: ref B L0: 84.6% 8.6% 2.5% 1.4% 0.9% 0.9% 0.6% 0.4% 0.2%
x264 [info]: ref B L1: 96.9% 3.1%
x264 [info]: kb/s:1505.31

Скриншоты

-
Other forum [Profile] [PM]
Display posts from previous:    
Reply to topic

The time now is: Today 05:40

All times are GMT + 3 Hours



You cannot post new topics in this forum
You cannot reply to topics in this forum
You cannot edit your posts in this forum
You cannot delete your posts in this forum
You cannot vote in polls in this forum
You cannot attach files in this forum
You cannot download files in this forum