Today is a free download without charge Download

Пуля для генерала / Золотая пуля / Эль Чунчо, кто его знает? / El Chuncho, quien sabe? / A Bullet for the General (Дамиано Дамиани / Damiano Damiani) [1966, Италия, вестерн, BDRip 720p] Dub + 3xMVO + VO + Sub Rus, Eng + Original Eng

Reply to topic
 
Author
Message

Omen ®

Longevity: 8 years 5 months

Posts: 181087

Торрент-статистика

Post 16-Mar-2013 16:50

[Quote]

Пуля для генерала / Золотая пуля / Эль Чунчо, кто его знает? / El Chuncho, quien sabe? / A Bullet for the General Страна: Италия
Студия: M. C. M.
Жанр: вестерн
Год выпуска: 1966
Продолжительность: 01:57:48
Перевод 1: Профессиональный (дублированный) [+ вставки (5 канал СПб)]
Перевод 2: Профессиональный (многоголосый закадровый) [5 канал СПб, 2006]
Перевод 3: Профессиональный (многоголосый закадровый) [ООО "Светла" (VHS)]
Перевод 4: Профессиональный (многоголосый закадровый) ["DVD Магия"]
Перевод 5: Студийный (одноголосый закадровый) [Сергей Вещев - ст."Кадр", 1995]
Cубтитры: русские, английские
Оригинальная аудиодорожка: английский
Режиссер: Дамиано Дамиани / Damiano Damiani
В ролях: Джан Мария Волонте, Клаус Кински, Мартин Бесвик, Лу Кастель, Хайме Фернандес, Андреа Кекки, Спартако Конверси, Хоакин Парра, Альдо Самбрелл, Хосе Мануэль Мартин, Сальваторе Боргезе, Карла Гравина,
Описание: Мексика, начало XX века. Идет гражданская война всех против всех. Одни борются за свободу своей страны, другие — защищают свою власть, третьи — просто занимаются разбоем.
Молодой элегантный американец приезжает в залитую кровью страну, идеально подходящую для его целей: быстро разбогатеть. Он внедряется в одну из банд, промышляющую торговлей оружием.
Он завоевывает доверие и восхищение прошедших огонь и воду повстанцев. Но только зачем он повсюду носит с собой как талисман винтовочный патрон с отлитой из золота пулей?
Доп. информация:

Исходник: ElkTheSenior
Тип релиза: BDRip 720p
Контейнер: MKV
Видео: MPEG-4 AVC Video, 1280x544 / 2,40:1 (16:9) / 6750 kbps / 23,976 fps / [email protected] / 2pass
Аудио 1: Russian: AC3, 2.0 ch, 192 kbps, 48 kHz | дубляж
Аудио 2: Russian: AC3, 2.0 ch, 192 kbps, 48 kHz | многоголосый (5 канал СПб)
Аудио 3: Russian: AC3, 2.0 ch, 192 kbps, 48 kHz | многоголосый (Светла)
Аудио 4: Russian: AC3, 2.0 ch, 192 kbps, 48 kHz | многоголосый ("DVD Магия")
Аудио 5: Russian: AC3, 2.0 ch, 192 kbps, 48 kHz | одноголосый
Аудио 6: English: DTS, 2.0 ch, 24-bit, 1509 kbps, 48 kHz
Формат субтитров: softsub (SRT)
Главы:-

х264 Log

x264 [info]: frame I:1275 Avg QP:16.88 size:154060
x264 [info]: frame P:35454 Avg QP:18.80 size: 58602
x264 [info]: frame B:132741 Avg QP:20.15 size: 27790

MediaInfo

Общее
Уникальный идентификатор : 188837859456262781752977382549156701010 (0x8E10D94C02B9FF54B10C20CAAE06A352)
Полное имя : Пуля для генерала (Золотая пуля) 1966.BDRip.720p.ДБ.3хПМ.ПО.Eng.mkv
Формат : Matroska
Версия формата : Version 4 / Version 2
Размер файла : 7,59 Гбайт
Продолжительность : 1 ч. 57 м.
Общий поток : 9222 Кбит/сек
Название фильма : El chuncho, quien sabe? (1966)
Дата кодирования : UTC 2013-03-16 07:44:49
Программа кодирования : mkvmerge v6.1.0 ('Old Devil') built on Mar 2 2013 14:32:37
Библиотека кодирования : libebml v1.3.0 + libmatroska v1.4.0
Видео
Идентификатор : 1
Формат : AVC
Формат/Информация : Advanced Video Codec
Профиль формата : [email protected]
Параметр CABAC формата : Да
Параметр ReFrames формата : 12 кадров
Идентификатор кодека : V_MPEG4/ISO/AVC
Продолжительность : 1 ч. 57 м.
Битрейт : 6750 Кбит/сек
Ширина : 1280 пикселей
Высота : 544 пикселя
Соотношение сторон : 2,35:1
Режим частоты кадров : Постоянный
Частота кадров : 23,976 кадра/сек
Цветовое пространство : YUV
Субдискретизация насыщенности : 4:2:0
Битовая глубина : 8 бит
Тип развёртки : Прогрессивная
Бит/(Пиксели*Кадры) : 0.404
Размер потока : 5,41 Гбайт (71%)
Библиотека кодирования : x264 core 129 r2230 1cffe9f
Настройки программы : cabac=1 / ref=12 / deblock=1:-2:-2 / analyse=0x3:0x133 / me=umh / subme=10 / psy=1 / psy_rd=1.00:0.00 / mixed_ref=1 / me_range=32 / chroma_me=1 / trellis=2 / 8x8dct=1 / cqm=0 / deadzone=21,11 / fast_pskip=0 / chroma_qp_offset=-2 / threads=6 / lookahead_threads=1 / sliced_threads=0 / nr=0 / decimate=0 / interlaced=0 / bluray_compat=0 / constrained_intra=0 / bframes=6 / b_pyramid=2 / b_adapt=2 / b_bias=0 / direct=3 / weightb=1 / open_gop=0 / weightp=2 / keyint=240 / keyint_min=24 / scenecut=40 / intra_refresh=0 / rc_lookahead=60 / rc=2pass / mbtree=0 / bitrate=6750 / ratetol=1.0 / qcomp=0.70 / qpmin=0 / qpmax=56 / qpstep=4 / cplxblur=20.0 / qblur=0.5 / vbv_maxrate=50000 / vbv_bufsize=62500 / nal_hrd=none / ip_ratio=1.30 / pb_ratio=1.20 / aq=1:0.90
Язык : English
Default : Да
Forced : Нет
Аудио #1
Идентификатор : 2
Формат : AC-3
Формат/Информация : Audio Coding 3
Профиль формата : Dolby Digital
Расширение режима : CM (complete main)
Параметр Endianness формата : Big
Идентификатор кодека : A_AC3
Продолжительность : 1 ч. 57 м.
Вид битрейта : Постоянный
Битрейт : 192 Кбит/сек
Каналы : 2 канала
Расположение каналов : Front: L R
Частота : 48,0 КГц
Битовая глубина : 16 бит
Метод сжатия : С потерями
Размер потока : 162 Мбайт (2%)
Заголовок : AC3 2.0ch 192kbps - дубляж (+ ПМ)
Язык : Russian
Default : Да
Forced : Нет
Аудио #2
Идентификатор : 3
Формат : AC-3
Формат/Информация : Audio Coding 3
Профиль формата : Dolby Digital
Расширение режима : CM (complete main)
Параметр Endianness формата : Big
Идентификатор кодека : A_AC3
Продолжительность : 1 ч. 57 м.
Вид битрейта : Постоянный
Битрейт : 192 Кбит/сек
Каналы : 2 канала
Расположение каналов : Front: L R
Частота : 48,0 КГц
Битовая глубина : 16 бит
Метод сжатия : С потерями
Размер потока : 162 Мбайт (2%)
Заголовок : AC3 2.0ch 192kbps - многоголосый (5 канал СПб, 2006)
Язык : Russian
Default : Нет
Forced : Нет
Аудио #3
Идентификатор : 4
Формат : AC-3
Формат/Информация : Audio Coding 3
Профиль формата : Dolby Digital
Расширение режима : CM (complete main)
Параметр Endianness формата : Big
Идентификатор кодека : A_AC3
Продолжительность : 1 ч. 57 м.
Вид битрейта : Постоянный
Битрейт : 192 Кбит/сек
Каналы : 2 канала
Расположение каналов : Front: L R
Частота : 48,0 КГц
Битовая глубина : 16 бит
Метод сжатия : С потерями
Размер потока : 162 Мбайт (2%)
Заголовок : AC3 2.0ch 192kbps - многоголосый (Светла)
Язык : Russian
Default : Нет
Forced : Нет
Аудио #4
Идентификатор : 5
Формат : AC-3
Формат/Информация : Audio Coding 3
Расширение режима : CM (complete main)
Параметр Endianness формата : Big
Идентификатор кодека : A_AC3
Продолжительность : 1 ч. 57 м.
Вид битрейта : Постоянный
Битрейт : 192 Кбит/сек
Каналы : 2 канала
Расположение каналов : Front: L R
Частота : 48,0 КГц
Битовая глубина : 16 бит
Метод сжатия : С потерями
Размер потока : 162 Мбайт (2%)
Заголовок : AC3 2.0ch 192kbps - многоголосый (DVD Магия)
Язык : Russian
Default : Нет
Forced : Нет
Аудио #5
Идентификатор : 6
Формат : AC-3
Формат/Информация : Audio Coding 3
Профиль формата : Dolby Digital
Расширение режима : CM (complete main)
Параметр Endianness формата : Big
Идентификатор кодека : A_AC3
Продолжительность : 1 ч. 57 м.
Вид битрейта : Постоянный
Битрейт : 192 Кбит/сек
Каналы : 2 канала
Расположение каналов : Front: L R
Частота : 48,0 КГц
Битовая глубина : 16 бит
Метод сжатия : С потерями
Размер потока : 162 Мбайт (2%)
Заголовок : AC3 2.0ch 192kbps - одноголосый (Сергей Вещев - ст."Кадр", 1995)
Язык : Russian
Default : Нет
Forced : Нет
Аудио #6
Идентификатор : 7
Формат : DTS
Формат/Информация : Digital Theater Systems
Режим : 16
Параметр Endianness формата : Big
Идентификатор кодека : A_DTS
Продолжительность : 1 ч. 57 м.
Вид битрейта : Постоянный
Битрейт : 1509 Кбит/сек
Каналы : 2 канала
Расположение каналов : Front: L R
Частота : 48,0 КГц
Битовая глубина : 24 бит
Метод сжатия : С потерями
Размер потока : 1,24 Гбайт (16%)
Заголовок : DTS 2.0ch 24-bit 1509kbps
Язык : English
Default : Нет
Forced : Нет
Текст #1
Идентификатор : 8
Формат : UTF-8
Идентификатор кодека : S_TEXT/UTF8
Идентификатор кодека/Информация : UTF-8 Plain Text
Язык : Russian
Default : Нет
Forced : Нет
Текст #2
Идентификатор : 9
Формат : UTF-8
Идентификатор кодека : S_TEXT/UTF8
Идентификатор кодека/Информация : UTF-8 Plain Text
Язык : English
Default : Нет
Forced : Нет
Меню
00:00:00.000 : en:1: FIRING SQUAD
00:03:37.000 : en:2: RAILROAD AMBUSH
00:12:35.000 : en:3: BANDITS TAKE THE TRAIN
00:19:43.000 : en:4: GRINGO
00:24:11.000 : en:5: "I THINK SHE LIKES YOU"
00:27:12.000 : en:6: ROBBING THE STOKADE
00:31:05.000 : en:7: BORDELLO BOMBSHELL
00:37:11.000 : en:8: WRAITH OF GOD
00:40:09.000 : en:9: ARRIVAL IN SAN MIGUEL
00:42:24.000 : en:10: DON FELIPE AND HIS WIFE
00:48:43.000 : en:11: NINO SPEAKS OUT
00:53:32.000 : en:12: SAN MIGUEL'S NEW LEADER
00:57:28.000 : en:13: ANGELICA AND THE GRINGO
01:02:10.000 : en:14: MAN OF THE PEOPLE
01:10:43.000 : en:15: THE RETURN
01:17:48.000 : en:16: "IT'S AN ATTACK!"
01:22:36.000 : en:17: LOSING THE ANGELICA
01:25:59.000 : en:18: MALARIA
01:32:06.000 : en:19: REBEL CAMP
01:38:04.000 : en:20: LEADER OF THE REVOLUTION
01:42:41.000 : en:21: A BULLET FOR THE GENERAL
01:47:58.000 : en:22: THE REWARD
01:51:06.000 : en:23: CHANGE OF HEART

-

Скриншот с названием фильма

Other forum [Profile] [PM]
Display posts from previous:    
Reply to topic

The time now is: Today 11:14

All times are GMT + 3 Hours



You cannot post new topics in this forum
You cannot reply to topics in this forum
You cannot edit your posts in this forum
You cannot delete your posts in this forum
You cannot vote in polls in this forum
You cannot attach files in this forum
You cannot download files in this forum