Today is a free download without charge Download

Три мушкетера / The Three Musketeers (Стивен Херек / Stephen Herek) [1993, боевик, мелодрама, комедия, HDTVRip/720p]

Reply to topic
 
Author
Message

Omen ®

Longevity: 8 years 5 months

Posts: 181087

Торрент-статистика

Post 16-Mar-2013 12:45

[Quote]

Три мушкетераThe Three Musketeers«A Place Of Betrayal. The Fate Of The King. A Time For Heroes.»- Страна: Австрия, Великобритания, США
Жанр: боевик, мелодрама, комедия, приключения, семейный
Год выпуска: 1993
Продолжительность: 01:45:28-Перевод 1: Профессиональный (многоголосый, закадровый) [ОРТ]
Перевод 2: Профессиональный (многоголосый, закадровый)
Перевод 3: Авторский (одноголосый закадровый) {Гаврилов Андрей}
Перевод 4: Авторский (одноголосый закадровый) {Горчаков Василий}
Перевод 5: Авторский (одноголосый закадровый) {Володарский Леонид}-Режиссер: Стивен Херек / Stephen Herek
В ролях:
Чарли Шин (Aramis), Кифер Сазерленд (Athos), Крис О’Доннелл (D'Artagnan), Оливер Платт (Porthos), Тим Карри (Cardinal Richelieu), Ребекка Де Морнэй (Lady Sabine DeWinter), Габриель Анвар (Queen Anne), Майкл Уинкотт (Rochefort), Пол МакГэнн (Girard, Jussac), Жюли Дельпи (Constance), Хью О’Конор (King Louis), Кристофер Адамсон (Henri)
Описание: Настоящая любовь и опасные приключения, о которых другие только мечтают, стали буднями для трех мушкетеров. Эти истинные рыцари без страха и упрека не признают никаких законов, кроме закона чести. Их нельзя поставить на колени, потому что они преклоняются только перед отвагой и мужеством.
Примечания: Самая известная экранизация знаменитого романа Александра Дюма, любимого миллионами читателей. Захватывающие погони, виртуозные трюки, схватки на шпагах, красочные костюмы и зажигательный юмор отличают эту версию бессмертной истории о д'Артаньяне и трех мушкетерах. В фильме звучит знаменитая песня "All for Love" в исполнении Брайана Адамса, Рода Стюарта и Стинга.-Сэмпл: http://multi-up.com/843342
Дополнительно: Источником является HDTVRip(720p). Убран логотип. Добавлен шум. Изменен FPS. Дороги взяты с DVD
Качество: HDTVRip/720p
Контейнер: MKV
Видео: 1280x544, AVC, 23,976 fps, 4000 kbps
Аудио №1: русский / AC3 / 5.1 / 48 kHz / 448 kbps / 16 bit || Профессиональный (многоголосый, закадровый) [ОРТ]
Аудио №2: русский / AC3 / 5.1 / 48 kHz / 448 kbps / 16 bit || Профессиональный (многоголосый, закадровый)
Аудио №3: русский / AC3 / 5.1 / 48 kHz / 448 kbps / 16 bit || Авторский (одноголосый закадровый) {Гаврилов Андрей}
Аудио №4: русский / AC3 / 2.0 / 48 kHz / 192 kbps / 16 bit || Авторский (одноголосый закадровый) {Горчаков Василий}
Аудио №5: русский / AC3 / 2.0 / 48 kHz / 192 kbps / 16 bit || Авторский (одноголосый закадровый) {Володарский Леонид}
Аудио №6: английский / AC3 / 5.1 / 48 kHz / 448 kbps / 16 bit

Скриншоты


Сравнение с источником

выбирал кадры, на которых было бы понятно, зачем я добавлял шум!!!
http://screenshotcomparison.com/comparison/13429/

Media Info

General
Unique ID : 189875671466738361139416628627043702390 (0x8ED8B96129C613898417CFFE6B1ED676)
Complete name : F:\!HDTV\Три мушкетера - Three Musketeers [1993.720p].mkv
Format : Matroska
Format version : Version 2
File size : 4.55 GiB
Duration : 1h 45mn
Overall bit rate : 6 178 Kbps
Encoded date : UTC 2013-03-11 06:56:38
Writing application : mkvmerge v5.5.0 ('Healer') built on Apr 6 2012 21:43:24
Writing library : libebml v1.2.3 + libmatroska v1.3.0
Video
ID : 1
Format : AVC
Format/Info : Advanced Video Codec
Format profile : [email protected]
Format settings, CABAC : Yes
Format settings, ReFrames : 9 frames
Codec ID : V_MPEG4/ISO/AVC
Duration : 1h 45mn
Bit rate : 4 000 Kbps
Width : 1 280 pixels
Height : 544 pixels
Display aspect ratio : 2.35:1
Frame rate : 23.976 fps
Color space : YUV
Chroma subsampling : 4:2:0
Bit depth : 8 bits
Scan type : Progressive
Bits/(Pixel*Frame) : 0.240
Stream size : 2.86 GiB (63%)
Title : Rip by [email protected]
Writing library : x264 core 129 r2230 1cffe9f
Encoding settings : cabac=1 / ref=9 / deblock=1:-2:-1 / analyse=0x3:0x113 / me=umh / subme=11 / psy=1 / psy_rd=0.95:0.00 / mixed_ref=1 / me_range=32 / chroma_me=1 / trellis=2 / 8x8dct=1 / cqm=0 / deadzone=21,11 / fast_pskip=0 / chroma_qp_offset=-2 / threads=12 / lookahead_threads=2 / sliced_threads=0 / nr=0 / decimate=1 / interlaced=0 / bluray_compat=0 / constrained_intra=0 / bframes=10 / b_pyramid=2 / b_adapt=2 / b_bias=0 / direct=3 / weightb=1 / open_gop=0 / weightp=2 / keyint=240 / keyint_min=23 / scenecut=40 / intra_refresh=0 / rc=2pass / mbtree=0 / bitrate=4000 / ratetol=1.0 / qcomp=0.60 / qpmin=0 / qpmax=69 / qpstep=4 / cplxblur=20.0 / qblur=0.5 / ip_ratio=1.40 / pb_ratio=1.30 / aq=1:1.00
Language : English
Default : Yes
Forced : No
Color primaries : BT.709-5, BT.1361, IEC 61966-2-4, SMPTE RP177
Transfer characteristics : BT.709-5, BT.1361
Matrix coefficients : BT.709-5, BT.1361, IEC 61966-2-4 709, SMPTE RP177
Audio #1
ID : 2
Format : AC-3
Format/Info : Audio Coding 3
Mode extension : CM (complete main)
Codec ID : A_AC3
Duration : 1h 45mn
Bit rate mode : Constant
Bit rate : 448 Kbps
Channel(s) : 6 channels
Channel positions : Front: L C R, Side: L R, LFE
Sampling rate : 48.0 KHz
Bit depth : 16 bits
Compression mode : Lossy
Stream size : 338 MiB (7%)
Title : MVO (ОРТ) [AC3 5.1 448 kbps]
Language : Russian
Default : Yes
Forced : No
Audio #2
ID : 3
Format : AC-3
Format/Info : Audio Coding 3
Mode extension : CM (complete main)
Codec ID : A_AC3
Duration : 1h 45mn
Bit rate mode : Constant
Bit rate : 448 Kbps
Channel(s) : 6 channels
Channel positions : Front: L C R, Side: L R, LFE
Sampling rate : 48.0 KHz
Bit depth : 16 bits
Compression mode : Lossy
Stream size : 338 MiB (7%)
Title : MVO [AC3 5.1 448 kbps]
Language : Russian
Default : No
Forced : No
Audio #3
ID : 4
Format : AC-3
Format/Info : Audio Coding 3
Mode extension : CM (complete main)
Codec ID : A_AC3
Duration : 1h 45mn
Bit rate mode : Constant
Bit rate : 448 Kbps
Channel(s) : 6 channels
Channel positions : Front: L C R, Side: L R, LFE
Sampling rate : 48.0 KHz
Bit depth : 16 bits
Compression mode : Lossy
Stream size : 338 MiB (7%)
Title : AVO (Гаврилов) [AC3 5.1 448 kbps]
Language : Russian
Default : No
Forced : No
Audio #4
ID : 5
Format : AC-3
Format/Info : Audio Coding 3
Mode extension : CM (complete main)
Codec ID : A_AC3
Duration : 1h 45mn
Bit rate mode : Constant
Bit rate : 192 Kbps
Channel(s) : 2 channels
Channel positions : Front: L R
Sampling rate : 48.0 KHz
Bit depth : 16 bits
Compression mode : Lossy
Stream size : 145 MiB (3%)
Title : AVO (Горчаков) [AC3 2.0 192 kbps]
Language : Russian
Default : No
Forced : No
Audio #5
ID : 6
Format : AC-3
Format/Info : Audio Coding 3
Mode extension : CM (complete main)
Codec ID : A_AC3
Duration : 1h 45mn
Bit rate mode : Constant
Bit rate : 192 Kbps
Channel(s) : 2 channels
Channel positions : Front: L R
Sampling rate : 48.0 KHz
Bit depth : 16 bits
Compression mode : Lossy
Stream size : 145 MiB (3%)
Title : AVO (Володарский) [AC3 2.0 192 kbps]
Language : Russian
Default : No
Forced : No
Audio #6
ID : 7
Format : AC-3
Format/Info : Audio Coding 3
Mode extension : CM (complete main)
Codec ID : A_AC3
Duration : 1h 45mn
Bit rate mode : Constant
Bit rate : 448 Kbps
Channel(s) : 6 channels
Channel positions : Front: L C R, Side: L R, LFE
Sampling rate : 48.0 KHz
Bit depth : 16 bits
Compression mode : Lossy
Stream size : 338 MiB (7%)
Title : Original [AC3 5.1 448 kbps]
Language : English
Default : No
Forced : No

AVSКухня

Изменил FPS чтобы зазря не перекодировать дороги.
Добавил шум, чтобы картинка не выглядела совсем плоской.
И чем хуже кадр тем больше шума добавлял.
Вроде неплохо получилось))
LoadPlugin("C:\Documents and Settings\Администратор\Мои документы\MeGUI_x86\tools\ffms\ffms2.dll")
LoadVirtualDubPlugin("G:\Новая папка (4)\!instal\!проги для двд,двдрипинг,конвертеры\!virtual dub\delogo132\delogo.vdf", "delogo")
FFVideoSource("E:\!downloaded\Tri.mushketera.1993.x264.HDTVRip.(720p).RG.MixTorrent.mkv", threads=1).Trim(102,151797)
ConvertToRGB32()
delogo(1, "", "", "", "", "G:\Новая папка (4)\!instal\!проги для двд,двдрипинг,конвертеры\!virtual dub\delogo132\1234.bmp", 15, 40, 0, 0)
ConvertToYV12()
AssumeFPS("ntsc_film")
trim(0, 80033)+trim(80041,0)
or=last
mot=ScriptClip("""mt_lut(string(YDifferenceFromPrevious + YDifferenceToNext), chroma="128")""")
luma=ScriptClip("""mt_lut("255 x 160 > 240 240 x 160 / * ? -", chroma="128")""")
EdgeMask=or.mt_edge(mode="hprewitt", thY1=15, thY2=255, chroma="128")
EdgeMask_MotionEffect=mt_lutxy(mot, EdgeMask, "x 11 < y x 25 > 0 1 x 10 - 15 / - y * ? ?", chroma="128").mt_invert(chroma="128")
maska=mt_lutxy(mot, luma, "x 6 * y > x 6 * y ?", chroma="128")
Grain=Blackness(length=151688, width=960 , height=400 , pixel_type="YV12", color=$808080).AddGrainC(5, 2).Spline64Resize(or.width, or.height)
GrainyClip2=MT_adddiff(last, Grain, Y=3, U=3, V=3)
t1=overlay(or, GrainyClip2, mask=maska)
overlay(or, t1, mask=EdgeMask_MotionEffect)
Other forum [Profile] [PM]
Display posts from previous:    
Reply to topic

The time now is: Today 10:58

All times are GMT + 3 Hours



You cannot post new topics in this forum
You cannot reply to topics in this forum
You cannot edit your posts in this forum
You cannot delete your posts in this forum
You cannot vote in polls in this forum
You cannot attach files in this forum
You cannot download files in this forum