Today is a free download without charge Download

Местные новости (1 серия из 20) (2013) SATRip [Обновляемая]

Reply to topic
 
Author
Message

UndegraundMen ®

Longevity: 8 years 9 months

Posts: 25145

Торрент-статистика

Post 16-Mar-2013 10:57

[Quote]

Местные новости (1 серия из 20) (2013) SATRip
«Невероятные приключения хипстера в Ростовской области»
- Русское название: Местные новости
Год выпуска: 2013
Производство: Россия, Кинокомпания "Артист"
Жанр: Комедия
Режиссер: Никита Римашов
Актеры: Павел Кравцов, Марина Дрень, Раиса Пащенко, Михаил Полицеймако, Юрий Добринский, Наталья Аскарова, Сергей Беланов, Василий Радин
Описание фильма:
Молодой парень убегает из Москвы от жесткой мамы и проблем с нелюбимым институтом к бабушке на лето в Ростов-на-Дону, южный, шумный, открытый город. Знакомится с девушкой — журналисткой местной газеты и устраивается работать в эту газету фотографом. Фотография — его увлечение и страсть, но здесь впервые его фотографии становятся интересны другим людям.
Каждая серия — новое журналистское расследование, которое молодые люди проводят вместе, открывая в городе и его людях новые стороны.
Наш герой — симпатичный позитивный парень двадцати примерно лет, не выпускает фотоаппарат из рук, снимает постоянно, иногда незаметно для окружающих, часто его снимки позволяют найти деталь, раскрывающую суть дела или дающую зацепку. Его фотографии сопровождают каждую статью, которая появляется в финале серии, как результат задания.

Продолжительность: ~ 00:23:00 серия
Качество видео: SATRip
Видеокодек: DivX 5
Битрейт видео: ~ 1600 Кбит/сек
Размер кадра: 704x400
Аудио: Русский, МР3, 2 ch, 128 Кбит/с

Внимание! Раздача ведётся путём добавления новых серий. Описание обновления торрента:

Внимание!
Раздача ведётся путём добавления новых серий; при каждом добавлении создётся новый торрент. Чтобы начать докачку новой серии, пользователям необходимо сделать следующее:
(1) остановить скачивание,
(2) удалить старый торрент у себя из клиента (старые серии удалять не надо),
(3) скачать новый торрент и запустить его у себя в клиенте вместо старого, при этом указать клиенту путь в старую папку куда и должно происходить скачивание новых серий.
Ваш клиент при этом должен произвести хеширование (проверку) старой папки (если не производит сам - помогите ему сделать это), и будет докачивать только те серии которых у вас ещё нет. Старые серии при этом не удаляются, а продолжают раздаваться!
Eсли вы уже удалили старые серии, то предотвратить повторную закачку старых серий можно, отжав галочку в соответсвующих местах при запуске нового торрента. По возможности, желательно не удалять старые серии как можно дольше чтобы релизёр не столько продолжал раздавать старые серии, а смог сконцентрироваться на новых.

MediaInfo

Код:
Общее
Полное имя                               : E:\Раздачи\Обновляемые\Mestnie.novosti\Mestnie.novosti.01.avi
Формат                                   : AVI
Формат/Информация                        : Audio Video Interleave
Размер файла                             : 296 Мбайт
Продолжительность                        : 23 м.
Общий поток                              : 1739 Кбит/сек
Библиотека кодирования                   : VirtualDub-MPEG2 build 24600/release
Видео
Идентификатор                            : 0
Формат                                   : MPEG-4 Visual
Профиль формата                          : [email protected]
Параметр BVOP формата                    : Нет
Параметр QPel формата                    : Нет
Параметр GMC формата                     : Без точки перехода
Параметр матрицы формата                 : Default (H.263)
Идентификатор кодека                     : DX50
Идентификатор кодека/Подсказка           : DivX 5
Продолжительность                        : 23 м.
Битрейт                                  : 1601 Кбит/сек
Ширина                                   : 704 пикселя
Высота                                   : 400 пикселей
Соотношение сторон                       : 16:9
Частота кадров                           : 25,000 кадров/сек
Цветовое пространство                    : YUV
Субдискретизация насыщенности            : 4:2:0
Битовая глубина                          : 8 бит
Тип развёртки                            : Прогрессивная
Метод сжатия                             : С потерями
Бит/(Пиксели*Кадры)                      : 0.227
Размер потока                            : 273 Мбайт (92%)
Библиотека кодирования                   : XviD 1.2.1 (UTC 2008-12-04)
Аудио
Идентификатор                            : 1
Формат                                   : MPEG Audio
Версия формата                           : Version 1
Профиль формата                          : Layer 3
Режим                                    : Joint stereo
Расширение режима                        : MS Stereo
Идентификатор кодека                     : 55
Идентификатор кодека/Подсказка           : MP3
Продолжительность                        : 23 м.
Вид битрейта                             : Постоянный
Битрейт                                  : 128 Кбит/сек
Каналы                                   : 2 канала
Частота                                  : 48,0 КГц
Метод сжатия                             : С потерями
Размер потока                            : 21,8 Мбайт (7%)
Выравнивание                             : Разделение по промежуткам
Продолжительность промежутка             : 40  мс. (1,00 видеокадр)
Время предзагрузки промежутка            : 500  мс.
Библиотека кодирования                   : LAME3.98.2
Скриншоты:
         
         -Время раздачи: 9.00 - 23.00 (по мере возможности...)
Other forum [Profile] [PM]
Display posts from previous:    
Reply to topic

The time now is: Today 05:03

All times are GMT + 3 Hours



You cannot post new topics in this forum
You cannot reply to topics in this forum
You cannot edit your posts in this forum
You cannot delete your posts in this forum
You cannot vote in polls in this forum
You cannot attach files in this forum
You cannot download files in this forum