Today is a free download without charge Download

Катерина. Другая жизнь (Сезон 4, серии 1-8 из 8) (2013) DVB

Reply to topic
 
Author
Message

UndegraundMen ®

Longevity: 8 years 9 months

Posts: 25145

Торрент-статистика

Post 16-Mar-2013 04:49

[Quote]

Катерина. Другая жизнь (Сезон 4, серии 1-8 из 8) (2013) DVB- Русское название: Катерина 4. Другая жизнь
Производство: Студия "Панорама"
Год выпуска: 2013
Жанр: Мелодрама
Режиссер: Андрей Щербинин
Актеры: Ирина Розанова, Александр Блок, Алиса Седова, Сергей Маркеев, Сергей Лосев, Мария Валешная, Ирина Цветкова, Александр Кудренко, Светлана Смирнова, Сергей Уманов, Геннадий Смирнов, Виталий Салтыков, Владимир Крылов, Дарья Юргенс, Вадим Гущин, Юлия Морозова и другие.
Описание фильма:
Лидии Викторовне Гориной, ставшей матерью для двух приёмных детей, приходится столкнуться с новыми жизненными испытаниями. И на сей раз под ударом оказалась её главная надежда и опора — любимый супруг Борис Одинцов. Решив начать новое дело — строительство коттеджного посёлка на месте разрушенных бывшим мэром домов, Борис Сергеевич неожиданно разворошил осиное гнездо. Старый недоброжелатель Одинцова Щетинин с помощью своих высоких покровителей добивается смещения Бориса Сергеевича с поста директора и берёт контроль над фирмой в свои руки. Оказавшись на улице после ареста мужа, Горина начинает борьбу за свободу Одинцова и будущее свой семьи.
kinopoisk
Продолжительность: 8 x ~ 00:43:00
Качество видео: DVBRip
Видеокодек: MPEG-2
Битрейт видео: ~5300 Kbps
Размер кадра: 720x576
Аудиокодек: MP2
Битрейт аудио: 2 ch, 256 Kbps

MediaInfo:

Код:
Общее
Полное имя : G:\DOWNLOADS\Катерина 4. Другая жизнь (2013) DVB\Катерина 4. Другая жизнь - 1 серия.mpg
Формат : MPEG-PS
Размер файла : 1,70 Гбайт
Продолжительность : 42 м.
Режим общего битрейта : Переменный
Общий поток : 5720 Кбит/сек
Библиотека кодирования : (c) 1998-2012 Womble Multimedia, Inc. / MPEG Video Wizard DVD 5.0.1.100 (03/2011) / Sep 7 2012
Видео
Идентификатор : 224 (0xE0)
Формат : MPEG Video
Версия формата : Version 2
Профиль формата : [email protected]
Параметр BVOP формата : Да
Параметр матрицы формата : Выборочная
Параметр GOP формата : M=3, N=15
Продолжительность : 42 м.
Вид битрейта : Переменный
Битрейт : 5350 Кбит/сек
Максимальный битрейт : 15,0 Мбит/сек
Ширина : 720 пикселей
Высота : 576 пикселей
Соотношение сторон : 4:3
Частота кадров : 25,000 кадров/сек
Стандарт вещания : PAL
Цветовое пространство : YUV
Субдискретизация насыщенности : 4:2:0
Битовая глубина : 8 бит
Тип развёртки : Чересстрочная
Порядок развёртки : Верхнее поле первое
Метод сжатия : С потерями
Бит/(Пиксели*Кадры) : 0.516
TimeCode_FirstFrame : 00:00:00:00
TimeCode_Source : Group of pictures header
Размер потока : 1,59 Гбайт (94%)
Библиотека кодирования : (c) 1998-2012 Womble Multimedia, Inc. / MPEG Video Wizard DVD 5.0.1.100 (03/2011) / Sep 7 2012
Аудио
Идентификатор : 192 (0xC0)
Формат : MPEG Audio
Версия формата : Version 1
Профиль формата : Layer 2
Продолжительность : 42 м.
Вид битрейта : Постоянный
Битрейт : 256 Кбит/сек
Каналы : 2 канала
Частота : 48,0 КГц
Метод сжатия : С потерями
Размер потока : 77,7 Мбайт (4%)
Скриншоты:
Other forum [Profile] [PM]
Display posts from previous:    
Reply to topic

The time now is: Today 23:40

All times are GMT + 3 Hours



You cannot post new topics in this forum
You cannot reply to topics in this forum
You cannot edit your posts in this forum
You cannot delete your posts in this forum
You cannot vote in polls in this forum
You cannot attach files in this forum
You cannot download files in this forum