Today is a free download without charge Download

Гончие 5 [1 серии из 16] (2013) SATRip [Обновляемая]

Reply to topic
 
Author
Message

UndegraundMen ®

Longevity: 8 years 9 months

Posts: 25145

Торрент-статистика

Post 16-Mar-2013 04:49

[Quote]

Гончие 5 [1 серии из 16] (2013) SATRip [Обновляемая]- Русское название: Гончие 5
Выпущено: Россия, "Форвард-Фильм", "Студия Панорама"
Год выпуска: 2013
Жанр: Детектив, Криминал
Перевод: Оригинал (Русский)
Субтитры: Отсутствуют
kinopoisk
Режиссер: Валерий Мызников
Актеры: Алексей Титков, Максим Фомин, Борис Хвошнянский, Эмилия Спивак, Владислав Мамчур, Елизавета Александрова, Роман Нечаев, Евгения Белобородова, Павел Майков, Павел Узденский, Виталий Салтыков, Андрей Феськов, Александр Нестеров (III), Станислав Казаку, Тимур Ефременков, Владимир Абросимов, Антон Чернов, Владимир Космидайло, Александр Самсон, Диана Дезмари, Никита Рогов, Владислав Резник, Алексей Лысенко, Кирилл Горбунов
Описание фильма:
Розыскной отдел УФСИН ждут большие перемены. Сплочённая команда гончих потеряла своего вожака – после гибели случайного свидетеля во время задержания очередного сбежавшего преступника Горыныч, взявший ответственность за случившееся на себя, вынужден уйти на пенсию. Вместо него на должность руководителя отдела назначают никому неизвестного москвича, в прошлом полковника ФСБ Владимира Резникова. Теперь оперативникам поневоле придётся привыкать к другим порядкам, а новому начальнику гончих предстоит изнутри узнать сложный и полный опасности мир, в котором свобода всегда дороже жизни…
Продолжительность: 1 х ~ 00:45:00 серия
Качество видео: SATRip
Видеокодек: DivX 5
Битрейт видео: ~1500 Kbit/s
Размер кадра: 704 х 400
Аудиокодек: MP3, 2.0
Битрейт аудио: 128 Kbit/sВнимание! Раздача ведётся путём добавления новых серий

Внимание! Раздача ведётся путём добавления новых серий. Описание обновления торрента.

Внимание! Раздача ведётся путём добавления новых серий; при каждом добавлении создётся новый торрент. Чтобы начать докачку новой серии, пользователям необходимо сделать следующее:
(1) остановить скачивание,
(2) удалить старый торрент у себя из клиента (старые серии удалять не надо),
(3) скачать новый торрент и запустить его у себя в клиенте вместо старого, при этом указать клиенту путь в старую папку куда и должно происходить скачивание новых серий.
Ваш клиент при этом должен произвести хеширование (проверку) старой папки (если не производит сам - помогите ему сделать это), и будет докачивать только те серии которых у вас ещё нет. Старые серии при этом не удаляются, а продолжают раздаваться!
Eсли вы уже удалили старые серии, то предотвратить повторную закачку старых серий можно, отжав галочку в соответсвующих местах при запуске нового торрента. По возможности, желательно не удалять старые серии как можно дольше чтобы релизёр не столько продолжал раздавать старые серии, а смог сконцентрироваться на новых.

MediaInfo

Общее
Полное имя : D:\Торренты\Гончие 5. 2013.SATRip\Гончие 5.01. 2013.SATRip.avi
Формат : AVI
Формат/Информация : Audio Video Interleave
Размер файла : 532 Мбайт
Продолжительность : 45 м.
Общий поток : 1638 Кбит/сек
Программа кодирования : VirtualDubMod 1.5.10.2 (build 2540/release)
Библиотека кодирования : VirtualDub build 29808/release
Видео
Идентификатор : 0
Формат : MPEG-4 Visual
Параметр BVOP формата : 1
Параметр QPel формата : Нет
Параметр GMC формата : Без точки перехода
Параметр матрицы формата : Default (H.263)
Режим смешивания : Сжатый битовый поток
Идентификатор кодека : DX50
Идентификатор кодека/Подсказка : DivX 5
Продолжительность : 45 м.
Битрейт : 1500 Кбит/сек
Ширина : 704 пикс.
Высота : 400 пикс.
Соотношение сторон : 16:9
Частота кадров : 25,000 кадр/сек
Цветовое пространство : YUV
Подвыборка цветности : 4:2:0
Битовая глубина : 8 бит
Тип развёртки : Прогрессивная
Метод сжатия : С потерями
Бит/(Пиксели*Кадры) : 0.213
Размер потока : 487 Мбайт (92%)
Библиотека кодирования : DivX 6.8.5 (UTC 2009-08-20)
Аудио
Идентификатор : 1
Формат : MPEG Audio
Версия формата : Version 1
Профиль формата : Layer 3
Режим : Joint stereo
Идентификатор кодека : 55
Идентификатор кодека/Подсказка : MP3
Продолжительность : 45 м.
Вид битрейта : Постоянный
Битрейт : 128 Кбит/сек
Каналы : 2 канала
Частота : 48,0 КГц
Метод сжатия : С потерями
Размер потока : 41,6 Мбайт (8%)
Выравнивание : Соединение по промежуткам
Продолжительность промежутка : 40 мс. (1,00 видеокадр)
Время предзагрузки промежутка : 504 ms
Библиотека кодирования : LAME3.90.3
Скриншоты:
           
Other forum [Profile] [PM]
Display posts from previous:    
Reply to topic

The time now is: Today 23:03

All times are GMT + 3 Hours



You cannot post new topics in this forum
You cannot reply to topics in this forum
You cannot edit your posts in this forum
You cannot delete your posts in this forum
You cannot vote in polls in this forum
You cannot attach files in this forum
You cannot download files in this forum