Today is a free download without charge Download

Бабушка, научи! (Леонид Полонский) [1983, Рисованный мультфильм, SATRip]

Reply to topic
 
Author
Message

Omen ®

Longevity: 7 years 11 months

Posts: 181087

Торрент-статистика

Post 15-Mar-2013 23:54

[Quote]

Бабушка, научи!
Страна: CCCР
Жанр: Рисованный мультфильм
Продолжительность: 00:09:40
Год выпуска: 1983
Русские субтитры: нет
Режиссёр: Леонид Полонский
Роли озвучивали: Л.Иванникова,Н.Пантелеева,А.Варенов,А.Закутаев
Описание: мультипликационный фильм, для маленьких, о бабушке-затейнице Лисе и ее внучке Алисе. С такой мудрой бабушкой, как у Алисы, всегда весело и интересно! Бабушка расскажет, что такое маскировка и бег с препятствиями, а затем герои помогут пастуху проучить глупого волка…
Доп. информация:
«Саратовтелефильм»
Сценарий: Б.Володарский
Художник-постановщик:В.Шурыгин
Оператор:Ю.Заболотнев
Композитор:Г.Азатов
Исходник для рипа любезно представлен SLuMeP
Качество: SATRip
Формат: AVI
Видео: 704x528 (1.33:1), 25 fps, XviD build 65 ~2150 kbps avg, 0.23 bit/pixel
Аудио: 48 kHz, AC3 Dolby Digital, 1/0 (C) ch, ~192.00 kbps avg
Субтитры: нет

Подробные технические данные

Format : AVIFormat/Info : Audio Video InterleaveFile size : 163 MiBDuration : 9mn 40sOverall bit rate : 2 353 KbpsWriting application : VirtualDubModRus 1.5.10.2 (build 2542/release)Copyright : Rutracker.orgComment : SATRip by dvdss
VideoID : 0Format : MPEG-4 VisualFormat profile : Advanced [email protected] settings, BVOP : 2Format settings, QPel : NoFormat settings, GMC : No warppointsFormat settings, Matrix : CustomCodec ID : XVIDCodec ID/Hint : XviDDuration : 9mn 40sBit rate : 2 151 KbpsWidth : 704 pixelsHeight : 528 pixelsDisplay aspect ratio : 5:4Original display aspect ratio : 4:3Frame rate : 25.000 fpsColor space : YUVChroma subsampling : 4:2:0Bit depth : 8 bitsScan type : ProgressiveCompression mode : LossyBits/(Pixel*Frame) : 0.231Stream size : 149 MiB (91%)Writing library : XviD 65
AudioID : 1Format : AC-3Format/Info : Audio Coding 3Mode extension : CM (complete main)Format settings, Endianness : BigCodec ID : 2000Duration : 9mn 40sBit rate mode : ConstantBit rate : 192 KbpsChannel(s) : 1 channelChannel positions : Front: CSampling rate : 48.0 KHzBit depth : 16 bitsCompression mode : LossyStream size : 13.3 MiB (8%)Alignment : Split accross interleavesInterleave, duration : 40 ms (1.00 video frame)Interleave, preload duration : 500 ms

Скриншоты

Other forum [Profile] [PM]
Display posts from previous:    
Reply to topic

The time now is: Today 02:52

All times are GMT + 3 Hours



You cannot post new topics in this forum
You cannot reply to topics in this forum
You cannot edit your posts in this forum
You cannot delete your posts in this forum
You cannot vote in polls in this forum
You cannot attach files in this forum
You cannot download files in this forum