Today is a free download without charge Download

Our Last Night - Fate [2013, EmoCore, Master]

Reply to topic
 
Author
Message

Omen ®

Longevity: 8 years 3 months

Posts: 181087

Торрент-статистика

Post 15-Mar-2013 23:54

[Quote]

Our Last Night - Fate
Жанр: EmoCore
Продолжительность: 3mn 33s 88ms
Год выпуска: 2013
Описание: Director: DJay Brawner
Director of Photography: Bryant Jansen
Producers: Mike Logenbach & Heather Baker
Editors: Ernie Gilbert & Chris Rodriquez
Colorist: Bryant Jansen
Качество: Master
Контейнер: MOV
Видео кодек: H.264
Аудио кодек: MP3
Видео: AVC at 10.2 Mbps 1920 x 815 (2.356) at 23.976 fps
Аудио: AAC at 320 Kbps 2 channels, 48.0 KHz

Отчёт MediaInfo / BDInfo

Format : MPEG-4Format profile : QuickTimeCodec ID : qtFile size : 268 MiBDuration : 3mn 33sOverall bit rate : 10.5 MbpsEncoded date : UTC 2013-01-03 03:08:31Tagged date : UTC 2013-01-03 03:12:22Writing library : Apple QuickTimeMedia/UUID : 3AFB5BFD-BB2A-4CAB-BC4A-FDD4FEA72DEEMedia/History/UUID : C357F2D8-6A68-4180-8DA7-FCC5C0995CE7
VideoID : 1Format : AVCFormat/Info : Advanced Video CodecFormat profile : [email protected] settings, CABAC : NoFormat settings, ReFrames : 2 framesCodec ID : avc1Codec ID/Info : Advanced Video CodingDuration : 3mn 33sBit rate : 10.2 MbpsWidth : 1 920 pixelsHeight : 815 pixelsOriginal height : 816 pixelsDisplay aspect ratio : 2.35:1Original display aspect ratio : 2.35:1Frame rate mode : ConstantFrame rate : 23.976 fpsColor space : YUVChroma subsampling : 4:2:0Bit depth : 8 bitsScan type : ProgressiveBits/(Pixel*Frame) : 0.272Stream size : 260 MiB (97%)Language : EnglishEncoded date : UTC 2013-01-03 03:12:11Tagged date : UTC 2013-01-03 03:12:22Color primaries : BT.709Transfer characteristics : BT.709Matrix coefficients : BT.709
AudioID : 2Format : AACFormat/Info : Advanced Audio CodecFormat profile : LCCodec ID : 40Duration : 3mn 33sSource duration : 3mn 33sBit rate mode : ConstantBit rate : 320 KbpsChannel(s) : 2 channelsChannel positions : Front: L RSampling rate : 48.0 KHzCompression mode : LossyStream size : 8.06 MiB (3%)Source stream size : 8.06 MiB (3%)Language : EnglishEncoded date : UTC 2013-01-03 03:12:11Tagged date : UTC 2013-01-03 03:12:22
OtherID : 3Type : Time codeFormat : QuickTime TCDuration : 3mn 33sTime code of first frame : 01:00:00:00Time code settings : StripedLanguage : EnglishEncoded date : UTC 2013-01-03 03:12:22Tagged date : UTC 2013-01-03 03:12:22

Скриншоты

Other forum [Profile] [PM]
Display posts from previous:    
Reply to topic

The time now is: Today 09:21

All times are GMT + 3 Hours



You cannot post new topics in this forum
You cannot reply to topics in this forum
You cannot edit your posts in this forum
You cannot delete your posts in this forum
You cannot vote in polls in this forum
You cannot attach files in this forum
You cannot download files in this forum