Today is a free download without charge Download

The Used - Hands And Faces [2013, EmoCore, Master]

Reply to topic
 
Author
Message

Omen ®

Longevity: 8 years 3 months

Posts: 181087

Торрент-статистика

Post 15-Mar-2013 23:54

[Quote]

The Used - Hands And Faces
Жанр: EmoCore
Продолжительность: 3mn 35s 132ms
Год выпуска: 2013
Описание: Director: DJay Brawner
Producers: DJay Brawner & Heather Baker
Director Of Photography: Bryant Jansen
Post Supervisor: Chris Rodriguez
Editors: Pascal De Maria & Sawhorse LA
Colorist: Bryant Jansen
Talking “Fate” - February 12th, 2013
When I received the song “Fate” by Our Last Night I wrestled with a lot of ideas for the video. I took time and watched the bands past videos and noticed a very strong emphasis on the typical “hardcore” video. That was the last thing I wanted to make. I did more research into their album, Age Of Ignorance, and felt a strong emphasis on change and rising above. Based off of their previous videos, I was worried the band might not be into my concept. My references for the video were Kid Cudi and Taylor Swift, not one hardcore video. I was pleased to hear that the band loved the references and the overall idea. They had been hoping to make a video that had a storyline, and they actually loved that I referenced Taylor Swift videos. It also helped that the band watched Drive over 50 times.
Making this video with the band was a lot of fun, we had a great cast that included Scott Schwartz from the Ocean’s 11 movies. Each character had their own backstory, their own emotions, and their own fears. We wanted to enter their depression and bring them out of that feeling and into a positive one. The underlining theme that music can saves lives is very strong, and it is something both the band and I are proud to have made.
©2013 DJay Brawner. All Rights Reserved. All Content Used by Permission.
Качество: Master
Контейнер: MOV
Видео кодек: H.264
Аудио кодек: mp3
Видео: AVC at 34.4 Mbps 1920 x 816 (2.353) at 23.976 fps
Аудио: AAC at 320 Kbps 2 channels, 48.0 KHz

Отчёт MediaInfo / BDInfo

Format : MPEG-4Format profile : QuickTimeCodec ID : qtFile size : 891 MiBDuration : 3mn 35sOverall bit rate : 34.7 MbpsEncoded date : UTC 2013-03-07 21:08:04Tagged date : UTC 2013-03-07 21:14:18Writing library : Apple QuickTimeMedia/UUID : E5709102-497F-449D-B948-78BA712646BDMedia/History/UUID : 63D06A8C-15F6-45E5-B008-1FDB910B8216
VideoID : 1Format : AVCFormat/Info : Advanced Video CodecFormat profile : [email protected] settings, CABAC : NoFormat settings, ReFrames : 2 framesCodec ID : avc1Codec ID/Info : Advanced Video CodingDuration : 3mn 35sBit rate : 34.4 MbpsWidth : 1 920 pixelsHeight : 816 pixelsDisplay aspect ratio : 2.35:1Frame rate mode : ConstantFrame rate : 23.976 fpsColor space : YUVChroma subsampling : 4:2:0Bit depth : 8 bitsScan type : ProgressiveBits/(Pixel*Frame) : 0.916Stream size : 883 MiB (99%)Language : EnglishEncoded date : UTC 2013-03-07 21:14:02Tagged date : UTC 2013-03-07 21:14:18Color primaries : BT.709Transfer characteristics : BT.709Matrix coefficients : BT.709
AudioID : 2Format : AACFormat/Info : Advanced Audio CodecFormat profile : LCCodec ID : 40Duration : 3mn 35sSource duration : 3mn 35sBit rate mode : ConstantBit rate : 320 KbpsChannel(s) : 2 channelsChannel positions : Front: L RSampling rate : 48.0 KHzCompression mode : LossyStream size : 8.02 MiB (1%)Source stream size : 8.02 MiB (1%)Language : EnglishEncoded date : UTC 2013-03-07 21:14:02Tagged date : UTC 2013-03-07 21:14:18
OtherID : 3Type : Time codeFormat : QuickTime TCDuration : 3mn 35sTime code of first frame : 01:00:00:00Time code settings : StripedLanguage : EnglishEncoded date : UTC 2013-03-07 21:14:18Tagged date : UTC 2013-03-07 21:14:18

Скриншоты

Other forum [Profile] [PM]
Display posts from previous:    
Reply to topic

The time now is: Today 16:33

All times are GMT + 3 Hours



You cannot post new topics in this forum
You cannot reply to topics in this forum
You cannot edit your posts in this forum
You cannot delete your posts in this forum
You cannot vote in polls in this forum
You cannot attach files in this forum
You cannot download files in this forum