Today is a free download without charge Download

Сокровище Серебряного озера / Der Schatz im Silbersee (Харальд Райнль) [1962 г., приключения, вестерн, BDRip 720p]

Reply to topic
 
Author
Message

Delia ®

Gender:

Longevity: 9 years 6 months

Posts: 1821

Торрент-статистика

Post 04-Jul-2011 01:30

[Quote]

Сокровище Серебряного озераDer Schatz im Silbersee Год выпуска: 1962
Страна: Франция, Германия (ФРГ), Югославия
Жанр: приключения, вестерн
Продолжительность: 01:51:04
Перевод: Профессиональный (полное дублирование)
Режиссер: Харальд Райнль
Продюссер: Лейф Файлберг, Эрвин Гитт, Стипе Гурдулич
Сценарий: Карл Май, Харальд Г. Петерссон
Бюджет: DEM 2 900 000
Премьера в мире: 14 декабря 1962
В ролях: Лекс Баркер, Херберт Лом, Пьер Брис, Гётц Георге, Карин Дор, Ральф Вольтер, Эдди Арент, Марианне Хоппе, Мирко Боман, Сима Яничиевич
Описание: Вождь Виннету и Шеттерхенд идут по следу полковника Бринкли — бессовестного негодяя, который во что бы то ни стало хочет заполучить легендарные сокровища Серебряного озера. Герои попадают в плен, и Бринкли первым добирается до пещеры с золотом. Он убивает стража и уже готов сбежать с заветным сокровищем, но умирающий страж приводит в действие секретный механизм, разрушающий пещеру.
Качество: BDRip 720p
Формат: MKV
Видео кодек: H.264
Аудио кодек: AC3
Видео: English, 4353 Кбит/сек, 1280*512 (2,500), в 23,976 кадр/сек, AVC ([email protected])
Аудио: Russian, 192 Кбит/сек, 48,0 КГц, 16 бит, 2 канала(ов), AC-3 | Дублированный
Аудио:Russian, 448 Кбит/сек, 48,0 КГц, 16 бит, 6 канала(ов), AC-3 | Профессиональный (многоголосый закадровый)
Аудио:German, 320 Кбит/сек, 48,0 КГц, 16 бит, 2 канала(ов), AC-3
Аудио:English, 320 Кбит/сек, 48,0 КГц, 16 бит, 2 канала(ов), AC-3
Субтитры:German, English - VobSub

MI:

Общее
Уникальный идентификатор : 228232671802030529768594727792406398111 (0xABB403814299BD8288A29D93570F849F)
Полное имя : F:\торрент\Der Schatz im Silbersee.BDRip 720p.mkv
Формат : Matroska
Размер файла : 4,38 Гбайт
Продолжительность : 1 ч. 51 м.
Общий поток : 5640 Кбит/сек
Дата кодирования : UTC 2011-07-03 21:47:50
Программа кодирования : mkvmerge v4.8.0 ('I Got The...') built on May 24 2011 03:12:58
Библиотека кодирования : libebml v1.2.0 + libmatroska v1.1.0
Видео
Идентификатор : 1
Формат : AVC
Формат/Информация : Advanced Video Codec
Профиль формата : [email protected]
Параметр CABAC формата : Да
Параметр ReFrames формата : 8 кадры
Идентификатор кодека : V_MPEG4/ISO/AVC
Продолжительность : 1 ч. 51 м.
Битрейт : 4353 Кбит/сек
Ширина : 1280 пикс.
Высота : 512 пикс.
Соотношение сторон : 2,500
Частота кадров : 23,976 кадр/сек
Цветовое пространство : YUV
Подвыборка цветности : 4:2:0
Битовая глубина : 8 бит
Тип развёртки : Прогрессивная
Бит/(Пиксели*Кадры) : 0.277
Размер потока : 3,30 Гбайт (75%)
Библиотека кодирования : x264 core 115 r2008 4c552d8
Настройки программы : cabac=1 / ref=8 / deblock=1:-3:-3 / analyse=0x3:0x133 / me=umh / subme=8 / psy=1 / psy_rd=1.00:0.15 / mixed_ref=1 / me_range=32 / chroma_me=1 / trellis=2 / 8x8dct=1 / cqm=0 / deadzone=21,11 / fast_pskip=0 / chroma_qp_offset=-3 / threads=6 / sliced_threads=0 / nr=0 / decimate=1 / interlaced=0 / bluray_compat=0 / constrained_intra=0 / bframes=6 / b_pyramid=2 / b_adapt=1 / b_bias=0 / direct=3 / weightb=1 / open_gop=0 / weightp=2 / keyint=250 / keyint_min=24 / scenecut=40 / intra_refresh=0 / rc_lookahead=50 / rc=2pass / mbtree=1 / bitrate=4353 / ratetol=1.0 / qcomp=0.60 / qpmin=0 / qpmax=69 / qpstep=4 / cplxblur=20.0 / qblur=0.5 / ip_ratio=1.40 / aq=1:1.00
Язык : English
Аудио #1
Идентификатор : 2
Формат : AC-3
Формат/Информация : Audio Coding 3
Расширение режима : CM (complete main)
Идентификатор кодека : A_AC3
Продолжительность : 1 ч. 51 м.
Вид битрейта : Постоянный
Битрейт : 192 Кбит/сек
Канал(ы) : 2 канала(ов)
Расположение каналов : Front: L R
Частота : 48,0 КГц
Битовая глубина : 16 бит
Метод сжатия : С потерями
Размер потока : 153 Мбайт (3%)
Язык : Russian
Аудио #2
Идентификатор : 3
Формат : AC-3
Формат/Информация : Audio Coding 3
Расширение режима : CM (complete main)
Идентификатор кодека : A_AC3
Продолжительность : 1 ч. 51 м.
Вид битрейта : Постоянный
Битрейт : 448 Кбит/сек
Канал(ы) : 6 канала(ов)
Расположение каналов : Front: L C R, Side: L R, LFE
Частота : 48,0 КГц
Битовая глубина : 16 бит
Метод сжатия : С потерями
Размер потока : 356 Мбайт (8%)
Язык : Russian
Аудио #3
Идентификатор : 4
Формат : AC-3
Формат/Информация : Audio Coding 3
Расширение режима : CM (complete main)
Идентификатор кодека : A_AC3
Продолжительность : 1 ч. 51 м.
Вид битрейта : Постоянный
Битрейт : 320 Кбит/сек
Канал(ы) : 2 канала(ов)
Расположение каналов : Front: L R
Частота : 48,0 КГц
Битовая глубина : 16 бит
Метод сжатия : С потерями
Размер потока : 254 Мбайт (6%)
Язык : German
Аудио #4
Идентификатор : 5
Формат : AC-3
Формат/Информация : Audio Coding 3
Расширение режима : CM (complete main)
Идентификатор кодека : A_AC3
Продолжительность : 1 ч. 51 м.
Вид битрейта : Постоянный
Битрейт : 320 Кбит/сек
Канал(ы) : 2 канала(ов)
Расположение каналов : Front: L R
Частота : 48,0 КГц
Битовая глубина : 16 бит
Метод сжатия : С потерями
Размер потока : 254 Мбайт (6%)
Язык : English
Текст #1
Идентификатор : 6
Формат : VobSub
Режим смешивания : zlib
Идентификатор кодека : S_VOBSUB
Идентификатор кодека/Информация : The same subtitle format used on DVDs
Язык : German
Текст #2
Идентификатор : 7
Формат : VobSub
Режим смешивания : zlib
Идентификатор кодека : S_VOBSUB
Идентификатор кодека/Информация : The same subtitle format used on DVDs
Язык : English
Меню
00:00:00.000 : en:00:00:00.000
00:03:23.244 : en:00:03:23.244
00:10:33.633 : en:00:10:33.633
00:19:03.058 : en:00:19:03.058
00:29:03.616 : en:00:29:03.616
00:39:08.596 : en:00:39:08.596
00:50:00.497 : en:00:50:00.497
00:58:06.858 : en:00:58:06.858
01:07:44.101 : en:01:07:44.101
01:16:23.870 : en:01:16:23.870
01:27:12.810 : en:01:27:12.810
01:37:57.454 : en:01:37:57.454

Скриншоты

               

_________________
Человек – это канат, натянутый между животным и сверхчеловеком, – канат над пропастью.
В человеке ценно то, что он мост, а не цель. Фридрих Ницше


Last edited by Delia on 2011-08-26 17:46; edited 3 times in total
Other forum [Profile] [PM]
Similar theme
Forum Topic Author Torrent Replies Last Post
./templates/default/images/folder_dl.gif Медицина и Здоровье Генрих Ужегов | Сокровищница народной медицины [6 книг] (2016) [FB2] Omen
1 | 0

0 | 934

4

2015-03-10 18:01
Omen Latest
Display posts from previous:    
Reply to topic

The time now is: Today 09:15

All times are GMT + 3 Hours



You cannot post new topics in this forum
You cannot reply to topics in this forum
You cannot edit your posts in this forum
You cannot delete your posts in this forum
You cannot vote in polls in this forum
You cannot attach files in this forum
You cannot download files in this forum