Today is a free download without charge Download

Турбулентность 3: Тяжёлый металл / Turbulence 3: Heavy Metal (Хорхе Монтеси / Jorge Montesi) [2001, США, Великобритания, Канада, триллер, WEB-DL 720p] 2xDVO + Sub Rus + Original Eng

Reply to topic
 
Author
Message

Omen ®

Longevity: 8 years 5 months

Posts: 181087

Торрент-статистика

Post 15-Mar-2013 19:48

[Quote]

Турбулентность 3: Тяжёлый металл / Turbulence 3: Heavy Metal
Страна: США, Великобритания, Канада
Жанр: триллер
Год выпуска: 2001
Продолжительность: 01:36:29
Перевод:
1: Профессиональный (двухголосый закадровый) Videogram
2: Профессиональный (двухголосый закадровый) Рен тв
Субтитры: русские
Навигация по главам: нет
Режиссер: Хорхе Монтеси / Jorge Montesi
В ролях: Джон Манн, Моника Шнарре, Габриель Анвар, Крэйг Шеффер, Рутгер Хауэр
Описание: Рок-звезда Слейд Крэйвен организовал небывалый концерт прямо в воздухе на борту гигантского Боинга. Избранные фанаты могут лицезреть кумира живьем, остальные — в прямом эфире по Интернету. Крэйвен жаждет славы! Но находится некто с еще более грандиозными планами и превращает сценическое буйство полета в реальный кошмар!
Доп. информация:
Видеодорожка взята с iTunes (US)
Аудио №1 взято отсюда, спасибо aldegar
Аудио №2 взято отсюда, спасибо demokpat
Сэмпл: http://yadi.sk/d/J6h2mCqZ3IcZ0
Качество: WEB-DL 720p
Контейнер: MKV
Видео: AVC 1280x718, (1.78:1), 23,976 fps, 3997 Kbps
Аудио №1: Rus; AC3 5.1; 384 Kbps; 48 kHz; DVO (Videogram)
Аудио №2: Rus; AC3 2.0; 192 Kbps; 48 kHz; DVO (Рен тв)
Аудио №3: Eng; AC3 5.1; 384 Kbps; 48 kHz; Original
Субтитры №1: Rus; SRT

MediaInfo

General
Unique ID : 238114458238897763135581058690489323360 (0xB3232D312927C773B0B6F0F405E10F60)
Complete name : D:\FINAL\Turbulence 3 Heavy Metal.mkv
Format : Matroska
Format version : Version 2
File size : 3.40 GiB
Duration : 1h 36mn
Overall bit rate : 5 048 Kbps
Encoded date : UTC 2013-03-15 13:00:33
Writing application : mkvmerge v5.8.0 ('No Sleep / Pillow') built on Sep 2 2012 15:37:04
Writing library : libebml v1.2.3 + libmatroska v1.3.0
Video #1
ID : 1
Format : AVC
Format/Info : Advanced Video Codec
Format profile : [email protected]
Format settings, CABAC : No
Format settings, ReFrames : 2 frames
Codec ID : V_MPEG4/ISO/AVC
Duration : 1h 36mn
Bit rate : 3 987 Kbps
Width : 1 280 pixels
Height : 718 pixels
Display aspect ratio : 16:9
Original display aspect ratio : 16:9
Frame rate mode : Constant
Frame rate : 23.976 fps
Color space : YUV
Chroma subsampling : 4:2:0
Bit depth : 8 bits
Scan type : Progressive
Bits/(Pixel*Frame) : 0.181
Stream size : 2.69 GiB (79%)
Language : English
Default : Yes
Forced : No
Color primaries : BT.709
Transfer characteristics : BT.709
Matrix coefficients : BT.709
Audio #2
ID : 2
Format : AC-3
Format/Info : Audio Coding 3
Mode extension : CM (complete main)
Format settings, Endianness : Big
Codec ID : A_AC3
Duration : 1h 36mn
Bit rate mode : Constant
Bit rate : 384 Kbps
Channel(s) : 6 channels
Channel positions : Front: L C R, Side: L R, LFE
Sampling rate : 48.0 KHz
Bit depth : 16 bits
Compression mode : Lossy
Stream size : 265 MiB (8%)
Title : DVO Videogram
Language : Russian
Default : Yes
Forced : No
Audio #3
ID : 3
Format : AC-3
Format/Info : Audio Coding 3
Mode extension : CM (complete main)
Format settings, Endianness : Big
Codec ID : A_AC3
Duration : 1h 36mn
Bit rate mode : Constant
Bit rate : 192 Kbps
Channel(s) : 2 channels
Channel positions : Front: L R
Sampling rate : 48.0 KHz
Bit depth : 16 bits
Compression mode : Lossy
Stream size : 133 MiB (4%)
Title : DVO REN TV
Language : Russian
Default : No
Forced : No
Audio #4
ID : 4
Format : AC-3
Format/Info : Audio Coding 3
Mode extension : CM (complete main)
Format settings, Endianness : Big
Codec ID : A_AC3
Duration : 1h 36mn
Bit rate mode : Constant
Bit rate : 384 Kbps
Channel(s) : 6 channels
Channel positions : Front: L C R, Side: L R, LFE
Sampling rate : 48.0 KHz
Bit depth : 16 bits
Compression mode : Lossy
Stream size : 265 MiB (8%)
Title : Original Eng
Language : English
Default : No
Forced : No
Text #5
ID : 5
Format : UTF-8
Codec ID : S_TEXT/UTF8
Codec ID/Info : UTF-8 Plain Text
Title : Rus
Language : Russian
Default : No
Forced : No

Скриншоты

Other forum [Profile] [PM]
Display posts from previous:    
Reply to topic

The time now is: Today 02:12

All times are GMT + 3 Hours



You cannot post new topics in this forum
You cannot reply to topics in this forum
You cannot edit your posts in this forum
You cannot delete your posts in this forum
You cannot vote in polls in this forum
You cannot attach files in this forum
You cannot download files in this forum