Today is a free download without charge Download

OneRepublic (One Republic) - Live at Rock am Ring 2010 [Rock, HDTV 1080i]

Reply to topic
 
Author
Message

Omen ®

Longevity: 8 years 4 months

Posts: 181087

Торрент-статистика

Post 15-Mar-2013 19:48

[Quote]

OneRepublic (One Republic) - Live at Rock am Ring 2010
Жанр: Rock
Продолжительность: 44мин 13сек
Год выпуска: 2010
Описание:
Выступление на Rock am Ring Фестивале 04.06.2010.
(Apologize is One of the rare songs that while breaking my heart are caressing my soul…
Ryan Tedder’s voice and his ability to create such remarkable songs is definitely one of God’s gifts to human kind – don’t you agree? )
Треклист:
01. Everybody Loves Me
02. Stop & Stare
03. All The Right Moves
04. Tyrant
05. Secrets
06. Marchin On
07. Apologize
08. Stand By Me
09. Seven Nation Army
10. Waking Up

Доп. информация

The new album "Native" in stores and online March 26th 2013.
http://www.onerepublic.com/
Качество: HDTV 1080i
Контейнер: MKV
Видео кодек: H.264
Аудио кодек: AC3
Видео: Codec: V_MPEG4/ISO/AVC, 1920x1080i, 16.2 Mbps, 25 fps
Аудио: AC3, Chann. 2, SR:48 KHz, BR: 384 Кb/s

МедиаИнфо/Скриншоты

Отчёт МедиаИнфо

GeneralComplete name : One Republic_Rock am Ring.mkvFormat : MatroskaFile size : 5.24 GiBDuration : 44mn 13sOverall bit rate : 17.0 MbpsWriting library : Haali DirectShow Matroska Muxer 1.11.96.14
VideoID : 1Format : AVCFormat/Info : Advanced Video CodecFormat profile : [email protected] settings, CABAC : YesFormat settings, ReFrames : 4 framesFormat settings, GOP : M=1, N=24Muxing mode : Container [email protected] ID : V_MPEG4/ISO/AVCDuration : 44mn 13sBit rate : 16.2 MbpsWidth : 1 920 pixelsHeight : 1 080 pixelsDisplay aspect ratio : 16:9Frame rate : 25.000 fpsColor space : YUVChroma subsampling : 4:2:0Bit depth : 8 bitsScan type : InterlacedScan order : Top Field FirstBits/(Pixel*Frame) : 0.313Stream size : 5.02 GiB (96%)Title : PID 514 VideoColor primaries : BT.709-5, BT.1361, IEC 61966-2-4, SMPTE RP177Transfer characteristics : BT.709-5, BT.1361Matrix coefficients : BT.709-5, BT.1361, IEC 61966-2-4 709, SMPTE RP177
AudioID : 2Format : AC-3Format/Info : Audio Coding 3Mode extension : CM (complete main)Codec ID : A_AC3Duration : 44mn 13sBit rate mode : ConstantBit rate : 384 KbpsChannel(s) : 2 channelsChannel positions : Front: L RSampling rate : 48.0 KHzVideo delay : 24msStream size : 121 MiB (2%)Title : AC3
Other forum [Profile] [PM]
Display posts from previous:    
Reply to topic

The time now is: Today 11:56

All times are GMT + 3 Hours



You cannot post new topics in this forum
You cannot reply to topics in this forum
You cannot edit your posts in this forum
You cannot delete your posts in this forum
You cannot vote in polls in this forum
You cannot attach files in this forum
You cannot download files in this forum