Today is a free download without charge Download

Только о любви (1-4 серии из 4) (2012) [H.264] DVBRip

Reply to topic
 
Author
Message

UndegraundMen ®

Longevity: 8 years 9 months

Posts: 25145

Торрент-статистика

Post 15-Mar-2013 15:52

[Quote]

Только о любви (1-4 серии из 4) (2012) [H.264] DVBRip- Оригинальное название: Только о любви
Год выпуска: 2012
Страна: Россия / Кинокомпания Русское
Жанр: мелодрама-
Премьера (РФ): 24 ноября 2012
Режиссер: Валерий Девятилов
Актеры: Карина Разумовская, Артём Федотов, Анна Литкенс, Екатерина Молоховская, Нелли Пшенная, Алексей Медведев, Елена Подкаминская, Виталий Егоров, Виктория Адельфина, Татьяна Казючиц, Игорь Фурманюк, Анатолий Руденко, Павел Трубинер, Александр Арсентьев, Владимир Яковлев, Любовь Руденко, Олег Чудницов, Екатерина Травова, Дарья Лузина, Мария Болонкина, Глеб Сердюков и другие
Описание фильма:
Действие происходит в конце 80-х гг в маленьком городе Заводске. Леся — красивая, одаренная, но очень своенравная девушка. После смерти родителей ее растила старшая сестра Катя — ради Леси она оставила мечту о сцене и работала за троих, чтобы Леся ни в чём не нуждалась. Вскоре после окончания школы красавицу Лесю позвал замуж влюбленный до безумия поклонник и девушка ответила согласием. Но вместо того, чтобы готовится к свадьбе, героиня целыми днями пропадает на вокзале, с тоской встречает поезда из Москвы и ждёт, что Он всё-таки вернётся-Продолжительность: 4~ 01:30:00
Качество видео: DVBRip - AVC
Формат: MKV
Видеокодек: MPEG-4 AVC
Битрейт видео: ~1300 kbps avg
Размер кадра: 704х384 (1,85:1), 25.000 fps
Аудиокодек: AC3
Аудио: 48 kHz, AC3, 2 ch, ~192 kbps avg
Субтитры: нет

MediaInfo:

Формат : Matroska
Версия формата : Version 1
Размер файла : 967 Мбайт
Продолжительность : 1 ч. 30 м.
Общий поток : 1495 Кбит/сек
Дата кодирования : UTC 2013-03-14 09:19:46
Программа кодирования : mkvmerge v2.4.2 ('Oh My God') built on Jan 18 2009 17:30:28
Библиотека кодирования : libebml v0.7.7 + libmatroska v0.8.1
Видео
Идентификатор : 1
Формат : AVC
Формат/Информация : Advanced Video Codec
Профиль формата : [url=mailto:[email protected]][email protected][/url]
Параметр CABAC формата : Да
Параметр ReFrames формата : 10 кадров
Идентификатор кодека : V_MPEG4/ISO/AVC
Продолжительность : 1 ч. 30 м.
Битрейт : 1300 Кбит/сек
Ширина : 704 пикселя
Высота : 384 пикселя
Соотношение сторон : 1,85:1
Режим частоты кадров : Постоянный
Частота кадров : 25,000 кадров/сек
Цветовое пространство : YUV
Субдискретизация насыщенности : 4:2:0
Битовая глубина : 8 бит
Тип развёртки : Прогрессивная
Бит/(Пиксели*Кадры) : 0.192
Размер потока : 823 Мбайт (85%)
Заголовок : /*spam*/
Библиотека кодирования : x264 core 129 r2245 bc13772
Настройки программы : cabac=1 / ref=10 / deblock=1:-3:-3 / analyse=0x3:0x133 / me=umh / subme=10 / psy=1 / psy_rd=1.00:0.15 / mixed_ref=1 / me_range=28 / chroma_me=1 / trellis=2 / 8x8dct=1 / cqm=0 / deadzone=21,11 / fast_pskip=0 / chroma_qp_offset=-3 / threads=12 / lookahead_threads=2 / sliced_threads=0 / nr=0 / decimate=1 / interlaced=0 / bluray_compat=0 / constrained_intra=0 / bframes=3 / b_pyramid=2 / b_adapt=2 / b_bias=0 / direct=1 / weightb=1 / open_gop=0 / weightp=2 / keyint=250 / keyint_min=25 / scenecut=40 / intra_refresh=0 / rc_lookahead=40 / rc=2pass / mbtree=1 / bitrate=1300 / ratetol=1.0 / qcomp=0.60 / qpmin=0 / qpmax=69 / qpstep=4 / cplxblur=20.0 / qblur=0.5 / ip_ratio=1.40 / aq=1:1.00
Язык : Russian
Default : Да
Forced : Нет
Аудио
Идентификатор : 2
Формат : AC-3
Формат/Информация : Audio Coding 3
Расширение режима : CM (complete main)
Параметр Endianness формата : Big
Идентификатор кодека : A_AC3
Продолжительность : 1 ч. 30 м.
Вид битрейта : Постоянный
Битрейт : 192 Кбит/сек
Каналы : 2 канала
Расположение каналов : Front: L R
Частота : 48,0 КГц
Битовая глубина : 16 бит
Метод сжатия : С потерями
Размер потока : 124 Мбайт (13%)
Заголовок : /*spam*/
Язык : Russian
Default : Да
Forced : Нет

H.264 log

-[NoImage] raw [info]: 704x384p 1:1 @ 25/1 fps (cfr)
-[NoImage] x264 [info]: using SAR=1/1
-[NoImage] x264 [info]: using cpu capabilities: MMX2 SSE2Fast SSSE3 FastShuffle SSE4.2 AVX
-[NoImage] x264 [info]: profile High, level 4.1
-[NoImage]
-[NoImage] x264 [info]: frame I:841 Avg QP:14.35 size: 43683
-[NoImage] x264 [info]: frame P:38354 Avg QP:17.05 size: 15157
-[NoImage] x264 [info]: frame B:96418 Avg QP:20.51 size: 2732

-[NoImage] x264 [info]: consecutive B-frames: 1.2% 2.7% 28.0% 68.1%
-[NoImage] x264 [info]: mb I I16..4: 3.4% 67.0% 29.6%
-[NoImage] x264 [info]: mb P I16..4: 0.5% 7.6% 1.3% P16..4: 38.7% 25.9% 21.3% 1.7% 0.7% skip: 2.1%
-[NoImage] x264 [info]: mb B I16..4: 0.1% 0.5% 0.1% B16..8: 36.4% 8.9% 2.0% direct: 6.0% skip:46.0% L0:38.3% L1:43.0% BI:18.6%
-[NoImage] x264 [info]: 8x8 transform intra:78.0% inter:50.9%
-[NoImage] x264 [info]: coded y,uvDC,uvAC intra: 87.6% 88.4% 67.1% inter: 24.3% 26.2% 5.4%
-[NoImage] x264 [info]: i16 v,h,dc,p: 30% 13% 10% 47%
-[NoImage] x264 [info]: i8 v,h,dc,ddl,ddr,vr,hd,vl,hu: 20% 10% 10% 7% 9% 12% 9% 12% 11%
-[NoImage] x264 [info]: i4 v,h,dc,ddl,ddr,vr,hd,vl,hu: 19% 11% 5% 8% 12% 14% 11% 11% 10%
-[NoImage] x264 [info]: i8c dc,h,v,p: 41% 21% 24% 14%
-[NoImage] x264 [info]: Weighted P-Frames: Y:1.5% UV:0.5%
-[NoImage] x264 [info]: ref P L0: 44.2% 12.7% 22.1% 4.5% 5.1% 2.7% 3.3% 1.4% 1.9% 1.5% 0.6% 0.0%
-[NoImage] x264 [info]: ref B L0: 74.8% 13.9% 4.2% 2.3% 1.5% 1.4% 1.1% 0.6% 0.3%
-[NoImage] x264 [info]: ref B L1: 94.0% 6.0%
-[NoImage] x264 [info]: kb/s:1299.99
-[NoImage] encoded 135613 frames, 41.09 fps, 1299.99 kb/s
Скриншоты:
         
         
Other forum [Profile] [PM]
Similar theme
Forum Topic Author Torrent Replies Last Post
./templates/default/images/folder_dl.gif Компьютерная литература Павел Орленко, Петр Евдокимов | C++ на примерах. Практика, практика и только практика (2019) [PDF] }{@R0N
1 | 0

0 | 1279

1

2019-03-28 22:34
}{@R0N Latest
Display posts from previous:    
Reply to topic

The time now is: Today 17:30

All times are GMT + 3 Hours



You cannot post new topics in this forum
You cannot reply to topics in this forum
You cannot edit your posts in this forum
You cannot delete your posts in this forum
You cannot vote in polls in this forum
You cannot attach files in this forum
You cannot download files in this forum