Today is a free download without charge Download

Gekijouban Fairy Tail: Houou no Miko / Сказка о Хвосте Феи: Жрица Жар-птицы [2012, MV] DVDRip 396p Rus

Reply to topic
 
Author
Message

UndegraundMen ®

Longevity: 8 years 11 months

Posts: 25145

Торрент-статистика

Post 15-Mar-2013 15:52

[Quote]

Сказка о Хвосте Феи: Жрица Жар-птицы- Страна: Япония
Жанр: приключения
Тип: Фильм
Продолжительность: 85 мин
Премьера: 18.08.2012
Автор оригинала: Масима Хиро
Снято по манге: Fairy Tail
Режиссер: Фудзимори Масая
Студия:
Качество: DVDrip
Формат: AVI
Видео: XVid, 704x396, 1200 Kbps, 24.0 fps
Аудио: MPEG Layer 3, stereo(2ch), 48.0 KHz, 192 Kbps (русский поверх японского)
Поддержка аппаратных плееров: Да
Релиз: ANIMEDIATV
Перевод: Deep_Kamate[ShiranaiTenshi]
Озвучивание: Shachiburi, Jam, ZaRT, Trouble, Tray, FruKT, Kiara_Laine, Oriko, Angel, Moony
Тайминг: Ryc99
Работа со звуком: Trouble
Сборка: Tranquillity
Описание:
Загадочная девушка по имени Эклер сваливается на голову гильдии "Хвост Феи", самой безбашеной гильдии магов. Даже после потери памяти, она помнила о двух частях камня жар-птицы, который может перевернуть мир магов сверх на голову. Нацу, Люси и вся шайка-лейка гильдии "Хвоста Феи" рвётся на помощь этой девушке.
(с)Максим Гардер

Тех. параметры:

General
Format : AVI
Format/Info : Audio Video Interleave
File size : 866 MiB
Duration : 1h 26mn
Overall bit rate : 1 405 Kbps
Movie name : Сказка о Хвосте Феи: Жрица Жар-птицы
Director : Shachiburi & Jam & ZaRT & Trouble & Tray & FruKT & Kiara_Laine & Oriko & Angel & Moony
Genre : Movie
Original source form/Name : Movie
Copyright : AniMedia.TV
Comment : Rip by Tranquillity
Video
ID : 0
Format : MPEG-4 Visual
Format profile : Advanced [email protected]
Format settings, BVOP : 2
Format settings, QPel : No
Format settings, GMC : No warppoints
Format settings, Matrix : Default (MPEG)
Codec ID : XVID
Codec ID/Hint : XviD
Duration : 1h 26mn
Bit rate : 1 200 Kbps
Width : 704 pixels
Height : 396 pixels
Display aspect ratio : 16:9
Frame rate : 24.000 fps
Color space : YUV
Chroma subsampling : 4:2:0
Bit depth : 8 bits
Scan type : Progressive
Compression mode : Lossy
Bits/(Pixel*Frame) : 0.179
Stream size : 740 MiB (85%)
Writing library : XviD 64
Audio
ID : 1
Format : MPEG Audio
Format version : Version 1
Format profile : Layer 3
Codec ID : 55
Codec ID/Hint : MP3
Duration : 1h 26mn
Source duration : 1h 26mn
Bit rate mode : Constant
Bit rate : 192 Kbps
Channel(s) : 2 channels
Sampling rate : 48.0 KHz
Compression mode : Lossy
Stream size : 118 MiB (14%)
Alignment : Split accross interleaves
Interleave, duration : 24 ms (0.58 video frame)
Writing library : LAMEнdJ%ЁЋжЃРJИ
Language : Не определен
-              -Время раздачи: До первых сидов
Other forum [Profile] [PM]
Display posts from previous:    
Reply to topic

The time now is: Today 22:06

All times are GMT + 3 Hours



You cannot post new topics in this forum
You cannot reply to topics in this forum
You cannot edit your posts in this forum
You cannot delete your posts in this forum
You cannot vote in polls in this forum
You cannot attach files in this forum
You cannot download files in this forum