Today is a free download without charge Download

Сваты 3 / Серии: 1-12 из 12 (Андрей Яковлев, Эдуард Радзюкевич) [2009, Комедия, HDTVRip]

Reply to topic
 
Author
Message

Omen ®

Longevity: 9 years 1 month

Posts: 181086

Торрент-статистика

Post 15-Mar-2013 15:44

[Quote]

-Сваты
Сезон 3, Серии 1-12 (12)
- Год выпуска: 2009
Производство: Украина, Квартал-95
Жанр: Комедия
Продолжительность: 00:44:00
Режиссер: Андрей Яковлев, Эдуард Радзюкевич
В ролях: Людмила Артемьева, Анатолий Васильев (II), Татьяна Кравченко, Фёдор Добронравов, Николай Добрынин, Александр Игнатуша, София Стеценко, Семен Фурман, Маргарита Шубина, Даниил Белых, Дмитрий Оскин, Дмитрий Сова, Оксана Коляденко, Анатолий Барчук, Валентина Ильяшенко, Жанна Богдевич, Ольга Гришина, Светлана Прус, Виктория Авдеенко
Описание: Семейные пары Будько (типичных сельских жителей) и Ковалевых (городских интеллигентов) объединяет только одно - любовь к внучке Женечке! Ради нее они готовы терпеть все! Даже присутствие друг друга!
Молодые родители Женечки - Маша и Максим, уехав в Голландию, оставили в поселке дочку на попечение Будько. Ковалевы приезжают помочь присмотреть за любимой внучкой, а заодно подготовить ее к поступлению в лицей! Так под одной крышей оказываются две семьи - городская и деревенская...
Качество: HDTVRip
Формат: AVI
Видео кодек: XviD
Аудио кодек: AC3
Видео: 720x400 (16/9), 25.000 fps, 1850 Kbps (0.26 bit/pixel)
Аудио: 48.0 KHz, 2 ch, 192 Kbps
Исходник предоставил: stekJIovat
Рип: Мосенька
Sample

MI

Общее
Полное имя : I:\Сваты (Сезон 3) HDTVRip\Сваты 3.01.HDTVRip./*spam*/.avi
Формат : AVI
Формат/Информация : Audio Video Interleave
Размер файла : 700 Мбайт
Продолжительность : 48 м.
Общий поток : 2036 Кбит/сек
Программа кодирования : VirtualDubMod 1.5.10.3 | www.virtualdub-fr.org || (build 2550/release)
Библиотека кодирования : VirtualDubMod build 2550/release
Видео
Идентификатор : 0
Формат : MPEG-4 Visual
Профиль формата : Advanced [email protected]
Параметр BVOP формата : 1
Параметр QPel формата : Нет
Параметр GMC формата : Без точки перехода
Параметр матрицы формата : Выборочная
Идентификатор кодека : XVID
Идентификатор кодека/Подсказка : XviD
Продолжительность : 48 м.
Битрейт : 1834 Кбит/сек
Ширина : 720 пикселей
Высота : 400 пикселей
Соотношение сторон : 16:9
Частота кадров : 25,000 кадров/сек
Цветовое пространство : YUV
Субдискретизация насыщенности : 4:2:0
Битовая глубина : 8 бит
Тип развёртки : Прогрессивная
Метод сжатия : С потерями
Бит/(Пиксели*Кадры) : 0.255
Размер потока : 630 Мбайт (90%)
Библиотека кодирования : XviD 63
Аудио
Идентификатор : 1
Формат : AC-3
Формат/Информация : Audio Coding 3
Расширение режима : CM (complete main)
Параметр Endianness формата : Big
Идентификатор кодека : 2000
Продолжительность : 48 м.
Вид битрейта : Постоянный
Битрейт : 192 Кбит/сек
Каналы : 2 канала
Расположение каналов : Front: L R
Частота : 48,0 КГц
Битовая глубина : 16 бит
Метод сжатия : С потерями
Размер потока : 66,0 Мбайт (9%)
Выравнивание : Разделение по промежуткам
Продолжительность промежутка : 40 мс. (1,00 видеокадр)
Время предзагрузки промежутка : 500 мс.

Other forum [Profile] [PM]
Display posts from previous:    
Reply to topic

The time now is: Today 05:12

All times are GMT + 3 Hours



You cannot post new topics in this forum
You cannot reply to topics in this forum
You cannot edit your posts in this forum
You cannot delete your posts in this forum
You cannot vote in polls in this forum
You cannot attach files in this forum
You cannot download files in this forum