Today is a free download without charge Download

Виктория / Серии: 8 из 8 (Андрей Джунковский) [2012, мелодрама, приключения, DVD9]

Reply to topic
 
Author
Message

Omen ®

Longevity: 9 years 1 month

Posts: 181086

Торрент-статистика

Post 15-Mar-2013 15:44

[Quote]

Виктория- -Год выпуска: 2012
Дистрибьютор: «Русское счастье Энтертеймент»
Производство: Всемирные Русские Студии
Жанр: мелодрама, приключения
Продолжительность: 360 мин.
Субтитры: нет-Режиссёр: Андрей Джунковский-В ролях:
Татьяна Арнтгольц, Александр Ратников, Сергей Перегудов, Анжелика Пташук,
Алексей Лонгин, Александр Денисенко (II), Эльдар Джанибеков-Описание:
Виктория с мужем Володей и сыном Антоном живет в далеком военном гарнизоне. Но их спокойная и размеренная жизнь рушится в одночасье. Володю увольняют в связи с армейской реформой, и он идет служить по контракту на границу Узбекистана и Шарифстана. Пройдет немного времени и Виктория узнает, что Володя пропал в горах, после чего при таинственных обстоятельствах исчезнет еще и сын Антошка. Вместе со своим другом детства Юрой, который давно и безнадежно влюблен в Викторию, героиня отправляется на поиски своего мужа и сына в полную опасностей и приключений восточную страну Шарифстан.-Возраст: 16+-Качество: DVD9
Формат: DVD-Video

Видео: PAL 16:9 (720x576) VBR Auto Letterboxed
Аудио: Russian (Dolby AC3, 2 ch) 96 Kbps
-

MediaInfo

Общее
Полное имя : F:\Раздачи на TORRENTS.ru\Виктория (8 серий из 8) DVD9\VIDEO_TS\VTS_01_5.VOB
Формат : MPEG-PS
Размер файла : 1000 Мбайт
Продолжительность : 26 с.
Режим общего битрейта : Переменный
Общий поток : 322 Мбит/сек
Видео
Идентификатор : 224 (0xE0)
Формат : MPEG Video
Версия формата : Version 2
Профиль формата : [email protected]
Параметр BVOP формата : Да
Параметр матрицы формата : Выборочная
Продолжительность : 26 с.
Вид битрейта : Переменный
Битрейт : 316 Мбит/сек
Максимальный битрейт : 8100 Кбит/сек
Ширина : 720 пикселей
Высота : 576 пикселей
Соотношение сторон : 16:9
Частота кадров : 25,000 кадров/сек
Стандарт вещания : PAL
Цветовое пространство : YUV
Субдискретизация насыщенности : 4:2:0
Битовая глубина : 8 бит
Тип развёртки : Прогрессивная
Метод сжатия : С потерями
Бит/(Пиксели*Кадры) : 30.473
Размер потока : 979 Мбайт (98%)
Аудио
Идентификатор : 189 (0xBD)-128 (0x80)
Формат : AC-3
Формат/Информация : Audio Coding 3
Расширение режима : CM (complete main)
Режим смешивания : DVD-Video
Продолжительность : 26 с.
Вид битрейта : Постоянный
Битрейт : 96,0 Кбит/сек
Каналы : 2 канала
Расположение каналов : Front: L R
Частота : 48,0 КГц
Битовая глубина : 16 бит
Метод сжатия : С потерями
Задержка видео : -160 мс.
Размер потока : 305 Кбайт (0%)
Меню

DVDInfo

Title: Виктория (8 серий из 8) DVD9
Size: 7.79 Gb ( 8 169 344,00 KBytes ) - DVD-9
Enabled regions: 1, 2, 3, 4, 5, 6, 7, 8
VTS_01 :
Play Length: 00:50:41+00:48:53+00:49:09+00:49:16+00:49:05+00:49:00+00:49:02+00:48:58
Video: PAL 16:9 (720x576) VBR, Auto Letterboxed
Audio:
English (Dolby AC3, 2 ch)
* Menus Information *
VIDEO_TS Menu
Video:
PAL 16:9 (720x576) VBR
Auto Letterboxed
English Language Unit :
Title Menu
VTS_01 Menu
Video:
PAL 16:9 (720x576) VBR
Auto Letterboxed
Audio:
Not specified (Dolby AC3, 2 ch)
English Language Unit :
Root Menu
Audio #1: AC3, 2/0 (L,R) ch, 96 kbps, Delay 0 mSec

Скриншоты меню

Скриншоты сериала



-Раздаю до первых 5-ти скачавших, на раздачи не возвращаюсь...-
Other forum [Profile] [PM]
Similar theme
Forum Topic Author Torrent Replies Last Post
./templates/default/images/folder_dl.gif Фантастика, фэнтези, ужасы, мистика Пелевин Виктор - Generation П [Клюквин Александр, 2013 г., 128 kbps, MP3] Omen
1 | 0

0 | 1204

0

2013-11-06 08:00
Omen Latest
./templates/default/images/folder_dl.gif Современная проза, классика, поэзия Виктор Пелевин | Generation П [Александр Клюквин] (2013) [MP3] UndegraundMen
1 | 0

0 | 942

2

2013-11-07 18:36
UndegraundMen Latest
Display posts from previous:    
Reply to topic

The time now is: Today 06:25

All times are GMT + 3 Hours



You cannot post new topics in this forum
You cannot reply to topics in this forum
You cannot edit your posts in this forum
You cannot delete your posts in this forum
You cannot vote in polls in this forum
You cannot attach files in this forum
You cannot download files in this forum