Today is a free download without charge Download

Эксперимент «Повиновение» / Compliance (Крэйг Зобель / Craig Zobel) [2012, США, драма, BDRip 720p] MVO + Original (Eng) + Sub (rus, eng)

Reply to topic
 
Author
Message

Omen ®

Longevity: 8 years 5 months

Posts: 181087

Торрент-статистика

Post 15-Mar-2013 07:28

[Quote]

Эксперимент «Повиновение» / Compliance-Год выпуска: 2012
Страна: США
Жанр: Триллер, драма, криминал
Выпущено: Bad Cop Bad Cop Film Productions, Dogfish Pictures, Muskat Filmed Properties LLC
Продолжительность: 01:29:46
Перевод: Профессиональный (многоголосый закадровый) Лицензия
Режиссер: Крэйг Зобель / Craig Zobel
В ролях: Энн Дауд, Дрима Уокер, Пэт Хили, Билл Кэмп, Филип Эттинджер, Джеймс МакКэффри, Мэтт Сервитто, Эшли Эткинсон, Никия Мэтис, Ральф Йован Родригез
Субтитры: Русские, английские, английские SHD, испанские
О фильме: В фастфудный ресторанчик звонит некто, представившийся офицером полиции, и сообщает, что молодая кассирша обвиняется в краже. Женщина-менеджер запирает подозреваемую в подсобке, обыскивает ее, принуждает раздеться — и все это по указанию голоса, чей авторитет ни разу не подвергается сомнению...-Фильм основан на реальных событиях, произошедших в США 9 апреля 2004 года, когда в ресторан «Макдональдс» в Маунт-Вашингтоне, штат Кентукки, позвонил 37-летний сотрудник частной тюрьмы Дэвид Р. Стюарт, представившийся «офицером Скоттом».-Качество: BDRip 720p
Формат: MKV
Видео: 1280 x 534 (2.397) at 23.976 fps, Номинальный битрейт: 6593 Кбит/сек
Аудио 1: AC-3 at 384 Кбит/сек, 6 каналов, 48,0 КГц [MVO]
Аудио 2: AC-3 at 640 Кбит/сек, 6 каналов, 48,0 КГц (Eng)
Субтитры: S_TEXT/UTF8 (Русские, английские, английские для слабослышаших SHD, испанские)-

MediaInfo

Общее
Уникальный идентификатор : 205615333983218518054257543708007193065 (0x9AB012A7E4A60FC2B0EF9DAE46BFD9E9)
Полное имя : Jeksperiment.Povinovenie.2012.P.BDRip.720p.IRONCLUB.mkv
Формат : Matroska
Версия формата : Version 2
Размер файла : 4,87 Гбайт
Продолжительность : 1 ч. 29 м.
Общий поток : 7772 Кбит/сек
Название фильма : IRONCLUB
Дата кодирования : UTC 2013-03-14 16:24:09
Программа кодирования : mkvmerge v5.2.0 ('I can't explain') built on Dec 18 2011 18:12:03
Библиотека кодирования : libebml v1.2.3 + libmatroska v1.3.0
Видео
Идентификатор : 1
Формат : AVC
Формат/Информация : Advanced Video Codec
Профиль формата : [email protected]
Параметр CABAC формата : Да
Параметр ReFrames формата : 12 кадров
Идентификатор кодека : V_MPEG4/ISO/AVC
Продолжительность : 1 ч. 29 м.
Битрейт : 6593 Кбит/сек
Ширина : 1280 пикселей
Высота : 534 пикселя
Соотношение сторон : 2,40:1
Режим частоты кадров : Постоянный
Частота кадров : 23,976 кадра/сек
Цветовое пространство : YUV
Субдискретизация насыщенности : 4:2:0
Битовая глубина : 8 бит
Тип развёртки : Прогрессивная
Бит/(Пиксели*Кадры) : 0.402
Размер потока : 4,13 Гбайт (85%)
Заголовок : Compliance.2012.720p.BluRay.DD5.1.x264-Lulz
Библиотека кодирования : x264 core 129 r2230kMod 1cffe9f
Настройки программы : cabac=1 / ref=12 / deblock=1:-3:-3 / analyse=0x3:0x133 / me=umh / subme=11 / psy=1 / fade_compensate=0.00 / psy_rd=1.05:0.00 / mixed_ref=1 / me_range=32 / chroma_me=1 / trellis=2 / 8x8dct=1 / cqm=0 / deadzone=21,11 / fast_pskip=0 / chroma_qp_offset=-2 / threads=6 / lookahead_threads=1 / sliced_threads=0 / nr=0 / decimate=0 / interlaced=0 / bluray_compat=0 / constrained_intra=0 / bframes=5 / b_pyramid=2 / b_adapt=2 / b_bias=0 / direct=3 / weightb=1 / open_gop=0 / weightp=2 / keyint=250 / keyint_min=23 / scenecut=40 / intra_refresh=0 / rc_lookahead=40 / rc=crf / mbtree=1 / crf=15.0000 / qcomp=0.80 / qpmin=0 / qpmax=69 / qpstep=4 / ip_ratio=1.30 / aq=1:0.60
Язык : English
Default : Да
Forced : Нет
Аудио #1
Идентификатор : 2
Формат : AC-3
Формат/Информация : Audio Coding 3
Расширение режима : CM (complete main)
Параметр Endianness формата : Big
Идентификатор кодека : A_AC3
Продолжительность : 1 ч. 29 м.
Вид битрейта : Постоянный
Битрейт : 384 Кбит/сек
Каналы : 6 каналов
Расположение каналов : Front: L C R, Side: L R, LFE
Частота : 48,0 КГц
Битовая глубина : 16 бит
Метод сжатия : С потерями
Размер потока : 247 Мбайт (5%)
Заголовок : R5
Язык : Russian
Default : Да
Forced : Да
Аудио #2
Идентификатор : 3
Формат : AC-3
Формат/Информация : Audio Coding 3
Расширение режима : CM (complete main)
Параметр Endianness формата : Big
Идентификатор кодека : A_AC3
Продолжительность : 1 ч. 29 м.
Вид битрейта : Постоянный
Битрейт : 640 Кбит/сек
Каналы : 6 каналов
Расположение каналов : Front: L C R, Side: L R, LFE
Частота : 48,0 КГц
Битовая глубина : 16 бит
Метод сжатия : С потерями
Размер потока : 411 Мбайт (8%)
Заголовок : Original
Язык : English
Default : Нет
Forced : Нет
Текст #1
Идентификатор : 4
Формат : UTF-8
Идентификатор кодека : S_TEXT/UTF8
Идентификатор кодека/Информация : UTF-8 Plain Text
Заголовок : Full R5
Язык : Russian
Default : Нет
Forced : Нет
Текст #2
Идентификатор : 5
Формат : UTF-8
Идентификатор кодека : S_TEXT/UTF8
Идентификатор кодека/Информация : UTF-8 Plain Text
Заголовок : Full
Язык : English
Default : Да
Forced : Нет
Текст #3
Идентификатор : 6
Формат : UTF-8
Идентификатор кодека : S_TEXT/UTF8
Идентификатор кодека/Информация : UTF-8 Plain Text
Заголовок : SDH
Язык : English
Default : Нет
Forced : Нет
Текст #4
Идентификатор : 7
Формат : UTF-8
Идентификатор кодека : S_TEXT/UTF8
Идентификатор кодека/Информация : UTF-8 Plain Text
Язык : Spanish
Default : Нет
Forced : Нет
Меню
00:00:00.000 : en:00:00:00.000
00:08:29.175 : en:00:08:29.175
00:15:38.855 : en:00:15:38.855
00:25:01.041 : en:00:25:01.041
00:32:46.715 : en:00:32:46.715
00:38:00.487 : en:00:38:00.487
00:45:59.048 : en:00:45:59.048
00:52:18.719 : en:00:52:18.719
00:59:45.999 : en:00:59:45.999
01:07:57.031 : en:01:07:57.031
01:15:14.301 : en:01:15:14.301
01:26:35.565 : en:01:26:35.565

Скриншоты

Other forum [Profile] [PM]
Similar theme
Forum Topic Author Torrent Replies Last Post
./templates/default/images/folder_dl.gif Техническая и научно-популярная литература А.В.Васильченко | Загадочная экспедиция. Что искали немцы в Антарктиде? [2011] [DJVU] sashau
1 | 0

0 | 1179

6

2012-12-31 09:19
sashau Latest
./templates/default/images/folder_dl.gif Техническая и научно-популярная литература INEX | Робототехнический эксперимент с PIC-микроконтроллером PIC16F887 (2008) [PDF] Omen
0 | 1

0 | 600

2

2015-05-06 22:00
Omen Latest
Display posts from previous:    
Reply to topic

The time now is: Today 09:59

All times are GMT + 3 Hours



You cannot post new topics in this forum
You cannot reply to topics in this forum
You cannot edit your posts in this forum
You cannot delete your posts in this forum
You cannot vote in polls in this forum
You cannot attach files in this forum
You cannot download files in this forum