Today is a free download without charge Download

Томпсоны / The Thompsons (Митчелл Алтери / Mitchell Altieri, Фил Флорес / Phil Flores) [2012, США, Великобритания, ужасы, триллер, драма, BDRip 1080p] [UnCut] VO (den904) + Original (Eng) + Sub (Eng)

Reply to topic
 
Author
Message

Omen ®

Longevity: 8 years 5 months

Posts: 181087

Торрент-статистика

Post 15-Mar-2013 03:26

[Quote]

Томпсоны / The Thompsons Страна: США, Великобритания
Студия: Film Harvest, San Francisco Independent Cinema, ...
Жанр: ужасы, триллер, драма
Год выпуска: 2012
Продолжительность: 01:21:57
Перевод: Одноголосый закадровый den904
Cубтитры: английские (epul_as)
Оригинальная аудиодорожка: английский
Режиссер: Митчелл Алтери / Mitchell Altieri, Фил Флорес / Phil Flores
В ролях: Кори Кнауф, Сэмюэл Чайлд, МакКензи Фиргенз, Джозеф МакКелхир, Райан Хартвиг, Элизабет Хенстридж, Дэниэл О’Мира, Селина Джиллз, Шон Браун, Том Холлоуэй
Описание:
Гамильтоны переезжают в другой город, где и продолжают свои черные делишки, только вскоре узнают, что они не единственные в городке, кто жаждет человеческой крови…
- -Тип релиза: BDRip 1080p (рип от CHD)
Контейнер: MKV
Видео: AVC (x264), 1916x812 (2,35:1) at 23,976 fps, 9901 Кbps, 0.265 bpp
Аудио 1: DTS; 1536 Kbps; CBR; 6 ch; 48 khz; 24 bit | VO - den904 |
Аудио 2: DTS; 1536 Kbps; CBR; 6 ch; 48 khz; 24 bit | Английский |
Формат субтитров: softsub (SRT)

Скриншоты || x264 Info || MediaInfo || Notes

Notes:

Цитата:

MediaInfo

Код:
Общее
Уникальный идентификатор                 : 217549494197910201681458784179109608690 (0xA3AA822EC5FCB360A871B0A62309BCF2)
Полное имя                               : Томпсоны.Uncut.2012.L1.1080p.BluRay.x264-CHD.mkv
Формат                                   : Matroska
Версия формата                           : Version 4 / Version 2
Размер файла                             : 7,37 Гбайт
Продолжительность                        : 1 ч. 21 м.
Общий поток                              : 12,9 Мбит/сек
Название фильма                          : profile.php?mode=viewprofile&u=22488948
Дата кодирования                         : UTC 2013-03-13 07:03:39
Программа кодирования                    : mkvmerge v6.1.0 ('Old Devil') built on Mar  2 2013 14:32:37
Библиотека кодирования                   : libebml v1.3.0 + libmatroska v1.4.0
Видео
Идентификатор                            : 1
Формат                                   : AVC
Формат/Информация                        : Advanced Video Codec
Профиль формата                          : [email protected]
Параметр CABAC формата                   : Да
Параметр ReFrames формата                : 5 кадров
Идентификатор кодека                     : V_MPEG4/ISO/AVC
Продолжительность                        : 1 ч. 21 м.
Битрейт                                  : 9901 Кбит/сек
Ширина                                   : 1916 пикселей
Высота                                   : 812 пикселей
Соотношение сторон                       : 2,35:1
Режим частоты кадров                     : Постоянный
Частота кадров                           : 23,976 кадра/сек
Цветовое пространство                    : YUV
Субдискретизация насыщенности            : 4:2:0
Битовая глубина                          : 8 бит
Тип развёртки                            : Прогрессивная
Бит/(Пиксели*Кадры)                      : 0.265
Размер потока                            : 5,50 Гбайт (75%)
Библиотека кодирования                   : x264 core 128 r2216 198a7ea
Настройки программы                      : cabac=1 / ref=5 / deblock=1:-3:-3 / analyse=0x3:0x113 / me=umh / subme=10 / psy=1 / psy_rd=1.05:0.10 / mixed_ref=1 / me_range=48 / chroma_me=1 / trellis=2 / 8x8dct=1 / cqm=0 / deadzone=21,11 / fast_pskip=0 / chroma_qp_offset=-2 / threads=12 / lookahead_threads=2 / sliced_threads=0 / nr=0 / decimate=1 / interlaced=0 / bluray_compat=0 / constrained_intra=0 / bframes=6 / b_pyramid=2 / b_adapt=2 / b_bias=0 / direct=3 / weightb=1 / open_gop=0 / weightp=2 / keyint=250 / keyint_min=23 / scenecut=40 / intra_refresh=0 / rc_lookahead=60 / rc=2pass / mbtree=0 / bitrate=9901 / ratetol=2.0 / qcomp=0.70 / qpmin=0 / qpmax=69 / qpstep=4 / cplxblur=20.0 / qblur=0.5 / vbv_maxrate=40000 / vbv_bufsize=30000 / nal_hrd=none / ip_ratio=1.40 / pb_ratio=1.30 / aq=2:1.00
Язык                                     : English
Default                                  : Да
Forced                                   : Нет
Аудио #1
Идентификатор                            : 2
Формат                                   : DTS
Формат/Информация                        : Digital Theater Systems
Режим                                    : 16
Параметр Endianness формата              : Big
Идентификатор кодека                     : A_DTS
Продолжительность                        : 1 ч. 21 м.
Вид битрейта                             : Постоянный
Битрейт                                  : 1510 Кбит/сек
Каналы                                   : 6 каналов
Расположение каналов                     : Front: L C R, Side: L R, LFE
Частота                                  : 48,0 КГц
Битовая глубина                          : 24 бит
Метод сжатия                             : С потерями
Размер потока                            : 885 Мбайт (12%)
Заголовок                                : VO [den904]
Язык                                     : Russian
Default                                  : Да
Forced                                   : Нет
Аудио #2
Идентификатор                            : 3
Формат                                   : DTS
Формат/Информация                        : Digital Theater Systems
Режим                                    : 16
Параметр Endianness формата              : Big
Идентификатор кодека                     : A_DTS
Продолжительность                        : 1 ч. 21 м.
Вид битрейта                             : Постоянный
Битрейт                                  : 1509 Кбит/сек
Каналы                                   : 6 каналов
Расположение каналов                     : Front: L C R, Side: L R, LFE
Частота                                  : 48,0 КГц
Битовая глубина                          : 24 бит
Метод сжатия                             : С потерями
Размер потока                            : 885 Мбайт (12%)
Язык                                     : English
Default                                  : Нет
Forced                                   : Нет
Текст
Идентификатор                            : 4
Формат                                   : UTF-8
Идентификатор кодека                     : S_TEXT/UTF8
Идентификатор кодека/Информация          : UTF-8 Plain Text
Заголовок                                : [epul_as]
Язык                                     : English
Default                                  : Нет
Forced                                   : Нет
Меню
00:00:00.000                             : de:00:00:00.000
00:13:28.433                             : de:00:13:28.433
00:29:30.602                             : de:00:29:30.602
00:46:41.424                             : de:00:46:41.424
00:53:37.423                             : de:00:53:37.423
01:05:39.144                             : de:01:05:39.144
01:13:49.842                             : de:01:13:49.842
01:18:39.715                             : de:01:18:39.715

x264 Info

x264 [info]: frame I:1144 Avg QP:12.19 size:223761
x264 [info]: frame P:27144 Avg QP:14.17 size: 89125
x264 [info]: frame B:89611 Avg QP:16.16 size: 37777
Other forum [Profile] [PM]
Display posts from previous:    
Reply to topic

The time now is: Today 02:04

All times are GMT + 3 Hours



You cannot post new topics in this forum
You cannot reply to topics in this forum
You cannot edit your posts in this forum
You cannot delete your posts in this forum
You cannot vote in polls in this forum
You cannot attach files in this forum
You cannot download files in this forum