Today is a free download without charge Download

Враг мой / Enemy Mine (Вольфганг Петерсен / Wolfgang Petersen) [1985, США, фантастика, боевик, драма, приключения, BDRip 1080p] 2MVO + Dub + AVO + Original Eng + Sub Rus, Eng

Reply to topic
 
Author
Message

Omen ®

Longevity: 8 years 5 months

Posts: 181087

Торрент-статистика

Post 15-Mar-2013 03:26

[Quote]

Враг мой
Enemy Mine
Страна: США
Жанр: фантастика, боевик, драма, приключения
Год выпуска: 1985
Продолжительность: 01:48:09
Перевод 1: Профессиональный (многоголосый закадровый)
Перевод 2: Профессиональный (многоголосый закадровый) Двадцатый Век Фокс
Перевод 3: Профессиональный (дублированный) cо вставками многоголоски
Перевод 4: Авторский (одноголосый закадровый) Живов
Оригинальная аудиодорожка: английская
Cубтитры: русские, английские
Режиссер: Вольфганг Петерсен / Wolfgang Petersen
Бюджет: $40 000 000
Мировая премьера: 12 декабря 1985

В ролях:
Деннис Куэйд, Луис Госсет мл., Брайон Джеймс, Ричард Маркус, Кэролин МакКормик, Бампер Робинсон, Джим Мапп, Лэнс Кервин, Скотт Крафт, Лу Майклс, Энди Гир, Генри Столоу
Описание:
В глубинах нашей галактики, на огромном расстоянии от Земли люди ведут кровопролитную войну с расой рептилий. Войну, которой Земля отдает последние силы, войну на полное уничтожение. В одной из жестоких схваток в окрестностях гористой планеты в системе двойной звезды пилот Виллис Дэвидж сбивает машину чужого, но тут же получает несколько попаданий и выходит из боя. Единственное место, где можно выжить после падения - та самая планета. Но упав, он обнаруживает, что сбитый им чужой не погиб. Смертельные враги оказываются заперты в одной клетке, и выбор прост - уничтожить друг друга или заключить перемирие и попытаться спастись.
Что окажется сильнее: желание жить или ненависть и боль за погибших?

Сэмпл
Тип релиза: BDRip 1080p
Контейнер: MKV
Видео: H.264/AVC, 1920x808, 12.6 Mbps, [email protected], 23.976 fps
Аудио 1: AC3, 448 Kbps, 48 kHz, Front: L C R, Side: L R, LFE\ rus, MVO
Аудио 2: DTS, 755 Kbps, 48 kHz, 24 bits, Front: L C R, Side: L R, LFE\ rus, MVO Двадцатый Век Фокс
Аудио 3: AC3, 384 Kbps, 48 kHz, Front: L C R, Side: L R, LFE\ rus, Dub + MVO
Аудио 4: DTS, 1510 Kbps, 48 kHz, 24 bits, Front: L C R, Side: C\ rus, Живов
Аудио 5: DTS, 1510 Kbps, 48 kHz, 24 bits, Front: L C R, Side: C\ eng
Cубтитры: SRT \ rus, eng

MediaInfo

Writing application : mkvmerge v5.9.0 ('On The Loose') built on Dec 9 2012 15:37:01
Writing library : libebml v1.3.0 + libmatroska v1.4.0
Video
ID : 1
Format : AVC
Format/Info : Advanced Video Codec
Format profile : [email protected]
Format settings, CABAC : Yes
Format settings, ReFrames : 4 frames
Muxing mode : Container [email protected]
Codec ID : V_MPEG4/ISO/AVC
Duration : 1h 48mn
Bit rate : 12.6 Mbps
Width : 1 920 pixels
Height : 808 pixels
Display aspect ratio : 2.35:1
Frame rate : 23.976 fps
Color space : YUV
Chroma subsampling : 4:2:0
Bit depth : 8 bits
Scan type : Progressive
Bits/(Pixel*Frame) : 0.339
Stream size : 9.26 GiB (71%)
Title : Rip by -=ANoobis=-
Writing library : x264 core 129 r2245 bc13772
Encoding settings : cabac=1 / ref=4 / deblock=1:-3:-3 / analyse=0x3:0x112 / me=umh / subme=10 / psy=1 / psy_rd=1.00:0.15 / mixed_ref=1 / me_range=32 / chroma_me=1 / trellis=2 / 8x8dct=1 / cqm=0 / deadzone=21,11 / fast_pskip=0 / chroma_qp_offset=-3 / threads=12 / lookahead_threads=2 / sliced_threads=0 / nr=0 / decimate=0 / interlaced=0 / bluray_compat=0 / constrained_intra=0 / bframes=6 / b_pyramid=2 / b_adapt=2 / b_bias=0 / direct=3 / weightb=1 / open_gop=0 / weightp=2 / keyint=250 / keyint_min=23 / scenecut=40 / intra_refresh=0 / rc_lookahead=40 / rc=2pass / mbtree=1 / bitrate=12600 / ratetol=1.0 / qcomp=0.70 / qpmin=0 / qpmax=69 / qpstep=4 / cplxblur=20.0 / qblur=0.5 / ip_ratio=1.40 / aq=1:1.00
Matrix coefficients : BT.709-5, BT.1361, IEC 61966-2-4 709, SMPTE RP177
Audio #1
ID : 2
Format : AC-3
Format/Info : Audio Coding 3
Mode extension : CM (complete main)
Codec ID : A_AC3
Duration : 1h 48mn
Bit rate mode : Constant
Bit rate : 448 Kbps
Channel(s) : 6 channels
Channel positions : Front: L C R, Side: L R, LFE
Sampling rate : 48.0 KHz
Stream size : 347 MiB (3%)
Title : AC3 MVO
Language : Russian
Audio #2
ID : 3
Format : DTS
Format/Info : Digital Theater Systems
Codec ID : A_DTS
Duration : 1h 48mn
Bit rate mode : Constant
Bit rate : 755 Kbps
Channel(s) : 6 channels
Channel positions : Front: L C R, Side: L R, LFE
Sampling rate : 48.0 KHz
Bit depth : 24 bits
Stream size : 584 MiB (4%)
Title : DTS MVO 20th century Fox
Language : Russian
Audio #3
ID : 4
Format : AC-3
Format/Info : Audio Coding 3
Mode extension : CM (complete main)
Codec ID : A_AC3
Duration : 1h 48mn
Bit rate mode : Constant
Bit rate : 384 Kbps
Channel(s) : 6 channels
Channel positions : Front: L C R, Side: L R, LFE
Sampling rate : 48.0 KHz
Stream size : 297 MiB (2%)
Title : AC3 Dub + MVO
Language : Russian
Audio #4
ID : 5
Format : DTS
Format/Info : Digital Theater Systems
Codec ID : A_DTS
Duration : 1h 48mn
Bit rate mode : Constant
Bit rate : 1 510 Kbps
Channel(s) : 4 channels
Channel positions : Front: L C R, Side: C
Sampling rate : 48.0 KHz
Bit depth : 24 bits
Stream size : 1.14 GiB (9%)
Title : DTS Zivov
Language : Russian
Audio #5
ID : 6
Format : DTS
Format/Info : Digital Theater Systems
Codec ID : A_DTS
Duration : 1h 48mn
Bit rate mode : Constant
Bit rate : 1 510 Kbps
Channel(s) : 4 channels
Channel positions : Front: L C R, Side: C
Sampling rate : 48.0 KHz
Bit depth : 24 bits
Stream size : 1.14 GiB (9%)
Title : DTS Eng
Text #1
ID : 7
Format : UTF-8
Codec ID : S_TEXT/UTF8
Codec ID/Info : UTF-8 Plain Text
Language : Russian
Text #2
ID : 8
Format : UTF-8
Codec ID : S_TEXT/UTF8
Codec ID/Info : UTF-8 Plain Text
Menu
00:00:00.000 : :00:00:00.000
00:01:27.480 : :00:01:27.480
00:02:30.520 : :00:02:30.520
00:04:40.560 : :00:04:40.560
00:10:45.680 : :00:10:45.680
00:16:06.920 : :00:16:06.920
00:23:51.040 : :00:23:51.040
00:29:28.486 : :00:29:28.486
00:35:00.200 : :00:35:00.200
00:38:41.720 : :00:38:41.720
00:47:25.520 : :00:47:25.520
00:52:00.840 : :00:52:00.840
00:56:22.540 : :00:56:22.540
01:00:22.320 : :01:00:22.320
01:05:33.120 : :01:05:33.120
01:10:16.920 : :01:10:16.920
01:18:05.480 : :01:18:05.480
01:24:26.360 : :01:24:26.360
01:27:51.040 : :01:27:51.040
01:39:21.200 : :01:39:21.200
01:43:37.382 : :01:43:37.382

Скриншоты


Other forum [Profile] [PM]
Display posts from previous:    
Reply to topic

The time now is: Today 10:51

All times are GMT + 3 Hours



You cannot post new topics in this forum
You cannot reply to topics in this forum
You cannot edit your posts in this forum
You cannot delete your posts in this forum
You cannot vote in polls in this forum
You cannot attach files in this forum
You cannot download files in this forum