Today is a free download without charge Download

Волшебные очки / Чарiвнi окуляри (Ефрем Пружанский) [1970, Рисованный мультфильм, DVDRip] RUS+UKR

Reply to topic
 
Author
Message

Omen ®

Longevity: 7 years 11 months

Posts: 181087

Торрент-статистика

Post 15-Mar-2013 03:26

[Quote]

Волшебные очки / Чарiвнi окуляри
Страна: СССР
Жанр: Рисованный мультфильм
Продолжительность: 00:09:44
Год выпуска: 1970
Русские субтитры: нет
Режиссёр: Ефрем Пружанский
Русский вариант озвучивания:
А. Михайлов, В. Безручко, Н.Гуляева,М.Яншин,А.Арюнова,Г.Громадин
Украинский вариант озвучивания:
Л.Игнатенко,Л.Молчанова,Б.Брондуков,В.Коршун
Описание: Мультипликационный фильм по мотивам сказки Л. Мур "Совенок и очки". Волшебные очки носил дедушка сова. Но однажды его внучонок - маленький совёнок взял их. А зачем и для каких целей ему были нужны эти волшебные очки?!
Доп. информация:
«Киевнаучфильм»
Сценарий:В.Капустян
Художник-постановщик:Г.Бабенко
Композитор:О.Канерштейн
Оператор:С.Никифоров
Редактор:С.Куценко
Рип by dvdss
Работа со звуком Xfiles
Постер к этой раздаче выполнила и любезно предоставила Lika 1603
Качество: DVDRip
Формат: AVI
Видео: 704x528 (1.33:1), 25 fps, XviD build 65 ~2097 kbps avg, 0.23 bit/pixel
Аудио 1: 48 kHz, AC3 Dolby Digital, 1/0 (C) ch, ~128.00 kbps avg RUS
Аудио 2: 48 kHz, AC3 Dolby Digital, 1/0 (C) ch, ~128.00 kbps avg UKR
Субтитры: нет

Подробные технические данные

Format : AVIFormat/Info : Audio Video InterleaveFile size : 165 MiBDuration : 9mn 44sOverall bit rate : 2 369 KbpsWriting application : VirtualDubModRus 1.5.10.2 (build 2542/release)Copyright : Rutracker.orgComment : DVDRip by dvdss
VideoID : 0Format : MPEG-4 VisualFormat profile : Advanced [email protected] settings, BVOP : 2Format settings, QPel : NoFormat settings, GMC : No warppointsFormat settings, Matrix : CustomCodec ID : XVIDCodec ID/Hint : XviDDuration : 9mn 44sBit rate : 2 098 KbpsWidth : 704 pixelsHeight : 528 pixelsDisplay aspect ratio : 5:4Original display aspect ratio : 4:3Frame rate : 25.000 fpsColor space : YUVChroma subsampling : 4:2:0Bit depth : 8 bitsScan type : ProgressiveCompression mode : LossyBits/(Pixel*Frame) : 0.226Stream size : 146 MiB (89%)Writing library : XviD 65
Audio #1ID : 1Format : AC-3Format/Info : Audio Coding 3Mode extension : CM (complete main)Format settings, Endianness : BigCodec ID : 2000Duration : 9mn 44sBit rate mode : ConstantBit rate : 128 KbpsChannel(s) : 1 channelChannel positions : Front: CSampling rate : 48.0 KHzBit depth : 16 bitsCompression mode : LossyStream size : 8.92 MiB (5%)Alignment : Split accross interleavesInterleave, duration : 40 ms (1.00 video frame)Interleave, preload duration : 500 ms
Audio #2ID : 2Format : AC-3Format/Info : Audio Coding 3Mode extension : CM (complete main)Format settings, Endianness : BigCodec ID : 2000Duration : 9mn 44sBit rate mode : ConstantBit rate : 128 KbpsChannel(s) : 1 channelChannel positions : Front: CSampling rate : 48.0 KHzBit depth : 16 bitsCompression mode : LossyStream size : 8.92 MiB (5%)Alignment : Split accross interleavesInterleave, duration : 40 ms (1.00 video frame)Interleave, preload duration : 500 ms

Скриншоты

Other forum [Profile] [PM]
Display posts from previous:    
Reply to topic

The time now is: Today 09:50

All times are GMT + 3 Hours



You cannot post new topics in this forum
You cannot reply to topics in this forum
You cannot edit your posts in this forum
You cannot delete your posts in this forum
You cannot vote in polls in this forum
You cannot attach files in this forum
You cannot download files in this forum