Today is a free download without charge Download

На игле / Trainspotting (Дэнни Бойл) [1996 г., драма, криминал, BDRip720p]

Reply to topic
 
Author
Message

Delia ®

Gender:

Longevity: 9 years 6 months

Posts: 1821

Торрент-статистика

Post 03-Jul-2011 10:22

[Quote]

На иглеTrainspotting Год выпуска: 1996
Страна: Великобритания
Жанр: драма, криминал
Продолжительность: 01.33.51
Перевод: Профессиональный (многоголосый, закадровый)
Режиссер: Дэнни Бойл
Продюссер: Эндрю МакДональд, Кристофер Фигг
Сценарий: Ирвин Уэлш, Джон Ходж
Бюджет: $3 500 000
Премьера в мире: 23 февраля 1996
В ролях: Юэн МакГрегор, Юэн Бремнер, Джонни Ли Миллер, Кевин МакКидд, Роберт Карлайл, Келли Макдоналд, Питер Маллан, Джеймс Космо, Айлин Николас, Сьюзэн Видлер
Описание: Выбирай жизнь. Выбирай работу. Выбирай карьеру. Выбирай семью. Выбирай большие телевизоры, стиральные машины, автомобили, компакт-диск плэйеры, электрические консервные ножи. Выбирай хорошее здоровье, низкий уровень холестерина и стоматологическую страховку.Выбирай недвижимость и аккуратно выплачивай взносы. Выбери свой первый дом. Выбирай своих друзей. Выбери себе курорт и шикарные чемоданы. Выбери костюм-тройку лучшей фирмы из самого дорогого материала. Выбери набор «Сделай сам», чтобы было чем заняться воскресным утром.Выбери удобный диван, чтобы развалиться на нем и смотреть отупляющее шоу. Набивай свое брюхо всякой всячиной. Выбери загнивание в конце всего и вспомни со стыдом напоследок своих дружков-подонков, которых ты заложил чтобы выкарабкаться. Выбирай будущее. Выбирай жизнь.Но зачем мне все это? Я не стал выбирать жизнь... Я выбрал кое-что другое... Почему? Да потому... Какие могут быть почему, когда ты под кайфом? Когда есть героин...
Качество: BDRip720p
Формат: MKV
Видео кодек: H.264
Аудио кодек: AC3
Видео: English, 5517 Кбит/сек, 1280*720 (16:9), в 23,976 кадр/сек, AVC ([email protected])
Аудио:Russian, 384 Кбит/сек, 48,0 КГц, 16 бит, 6 канала(ов), AC-3| Тивионика
Аудио:Russian, 384 Кбит/сек, 48,0 КГц, 16 бит, 6 канала(ов), AC-3 | CP DIGITAL
Аудио:English, 320 Кбит/сек, 48,0 КГц, 16 бит, 6 канала(ов), AC-3 | оригинал
Субтитры:1.Russian. 2.Russian .3. Russian, English - VobSub (2,3 Russian - ненормативная лексика )

MI:

Общее
Уникальный идентификатор : 187982549278538834178632775150435569553 (0x8D6C1F3FD57D76A5ADC7C71EC3300F91)
Полное имя : F:\торрент\Na.Igle.1996.BDRip720р.mkv
Формат : Matroska
Размер файла : 4,34 Гбайт
Продолжительность : 1 ч. 33 м.
Общий поток : 6618 Кбит/сек
Дата кодирования : UTC 2011-07-03 06:33:23
Программа кодирования : mkvmerge v4.8.0 ('I Got The...') built on May 24 2011 03:12:58
Библиотека кодирования : libebml v1.2.0 + libmatroska v1.1.0
Видео
Идентификатор : 1
Формат : AVC
Формат/Информация : Advanced Video Codec
Профиль формата : [email protected]
Параметр CABAC формата : Да
Параметр ReFrames формата : 9 кадры
Идентификатор кодека : V_MPEG4/ISO/AVC
Продолжительность : 1 ч. 33 м.
Битрейт : 5517 Кбит/сек
Ширина : 1280 пикс.
Высота : 720 пикс.
Соотношение сторон : 16:9
Частота кадров : 23,976 кадр/сек
Цветовое пространство : YUV
Подвыборка цветности : 4:2:0
Битовая глубина : 8 бит
Тип развёртки : Прогрессивная
Бит/(Пиксели*Кадры) : 0.250
Размер потока : 3,54 Гбайт (82%)
Библиотека кодирования : x264 core 115 r2008 4c552d8
Настройки программы : cabac=1 / ref=9 / deblock=1:-2:-1 / analyse=0x3:0x133 / me=umh / subme=8 / psy=1 / psy_rd=1.00:0.15 / mixed_ref=1 / me_range=32 / chroma_me=1 / trellis=2 / 8x8dct=1 / cqm=0 / deadzone=21,11 / fast_pskip=0 / chroma_qp_offset=-3 / threads=6 / sliced_threads=0 / nr=0 / decimate=1 / interlaced=0 / bluray_compat=0 / constrained_intra=0 / bframes=8 / b_pyramid=2 / b_adapt=2 / b_bias=0 / direct=3 / weightb=1 / open_gop=0 / weightp=2 / keyint=250 / keyint_min=24 / scenecut=40 / intra_refresh=0 / rc_lookahead=50 / rc=2pass / mbtree=1 / bitrate=5517 / ratetol=1.0 / qcomp=0.60 / qpmin=0 / qpmax=69 / qpstep=4 / cplxblur=20.0 / qblur=0.5 / ip_ratio=1.40 / aq=1:1.00
Язык : English
Аудио #1
Идентификатор : 2
Формат : AC-3
Формат/Информация : Audio Coding 3
Расширение режима : CM (complete main)
Идентификатор кодека : A_AC3
Продолжительность : 1 ч. 33 м.
Вид битрейта : Постоянный
Битрейт : 384 Кбит/сек
Канал(ы) : 6 канала(ов)
Расположение каналов : Front: L C R, Side: L R, LFE
Частота : 48,0 КГц
Битовая глубина : 16 бит
Метод сжатия : С потерями
Размер потока : 258 Мбайт (6%)
Заголовок : Тивионика
Язык : Russian
Аудио #2
Идентификатор : 3
Формат : AC-3
Формат/Информация : Audio Coding 3
Расширение режима : CM (complete main)
Идентификатор кодека : A_AC3
Продолжительность : 1 ч. 33 м.
Вид битрейта : Постоянный
Битрейт : 384 Кбит/сек
Канал(ы) : 6 канала(ов)
Расположение каналов : Front: L C R, Side: L R, LFE
Частота : 48,0 КГц
Битовая глубина : 16 бит
Метод сжатия : С потерями
Размер потока : 258 Мбайт (6%)
Заголовок : CP DIGITAL
Язык : Russian
Аудио #3
Идентификатор : 4
Формат : AC-3
Формат/Информация : Audio Coding 3
Расширение режима : CM (complete main)
Идентификатор кодека : A_AC3
Продолжительность : 1 ч. 33 м.
Вид битрейта : Постоянный
Битрейт : 320 Кбит/сек
Канал(ы) : 6 канала(ов)
Расположение каналов : Front: L C R, Side: L R, LFE
Частота : 48,0 КГц
Битовая глубина : 16 бит
Метод сжатия : С потерями
Размер потока : 215 Мбайт (5%)
Язык : English
Текст #1
Идентификатор : 5
Формат : VobSub
Режим смешивания : zlib
Идентификатор кодека : S_VOBSUB
Идентификатор кодека/Информация : The same subtitle format used on DVDs
Язык : Russian
Текст #2
Идентификатор : 6
Формат : VobSub
Режим смешивания : zlib
Идентификатор кодека : S_VOBSUB
Идентификатор кодека/Информация : The same subtitle format used on DVDs
Заголовок : ненормативная лексика
Язык : Russian
Текст #3
Идентификатор : 7
Формат : VobSub
Режим смешивания : zlib
Идентификатор кодека : S_VOBSUB
Идентификатор кодека/Информация : The same subtitle format used on DVDs
Заголовок : ненормативная лексика
Язык : Russian
Текст #4
Идентификатор : 8
Формат : VobSub
Режим смешивания : zlib
Идентификатор кодека : S_VOBSUB
Идентификатор кодека/Информация : The same subtitle format used on DVDs
Язык : English
Меню
00:00:00.000 : en:00:00:00.000
00:00:27.152 : en:00:00:27.152
00:10:17.033 : en:00:10:17.033
00:11:54.297 : en:00:11:54.297
00:20:14.463 : en:00:20:14.463
00:22:57.209 : en:00:22:57.209
00:34:34.990 : en:00:34:34.990
00:41:09.759 : en:00:41:09.759
00:46:41.090 : en:00:46:41.090
00:50:49.755 : en:00:50:49.755
01:01:02.576 : en:01:01:02.576
01:03:55.540 : en:01:03:55.540
01:06:44.709 : en:01:06:44.709
01:08:27.562 : en:01:08:27.562
01:15:29.567 : en:01:15:29.567
01:21:30.594 : en:01:21:30.594
01:25:50.729 : en:01:25:50.729
01:30:41.936 : en:01:30:41.936

Скриншоты

         

_________________
Человек – это канат, натянутый между животным и сверхчеловеком, – канат над пропастью.
В человеке ценно то, что он мост, а не цель. Фридрих Ницше


Last edited by Delia on 2011-08-26 17:46; edited 3 times in total
Other forum [Profile] [PM]
Display posts from previous:    
Reply to topic

The time now is: Today 09:44

All times are GMT + 3 Hours



You cannot post new topics in this forum
You cannot reply to topics in this forum
You cannot edit your posts in this forum
You cannot delete your posts in this forum
You cannot vote in polls in this forum
You cannot attach files in this forum
You cannot download files in this forum