Today is a free download without charge Download

Ангел в сердце / Серии: 4 из 4 (Елена Николаева) [2012, мелодрама, 2 х DVD5]

Reply to topic
 
Author
Message

Omen ®

Longevity: 9 years 1 month

Posts: 181086

Торрент-статистика

Post 14-Mar-2013 22:34

[Quote]

Ангел в сердце- -Год выпуска: 2012
Дистрибьютор: «Русское счастье Энтертеймент»
Производство: "Amalgama Studio"
Жанр: мелодрама
Продолжительность: 208 мин.
Субтитры: нет-Режиссёр: Елена Николаева-В ролях:
Даниил Певцов, Дмитрий Певцов, Анна Михайловская, Ольга Дроздова, Александр Солдаткин,
Сергей Юшкевич, Катерина Шпица, Валерий Баринов, Татьяна Догилева, Борис Каморзин-Описание:
Лето 1985 года. Ксения и Петр заканчивают школу в приморском городе. Они любят друг друга с первого класса. И теперь, когда впереди взрослая жизнь, серьезно думают о свадьбе. Но в семье Ксении случается несчастье — папа, начальник строительного треста, замешан в деле о финансовых махинациях, и ему грозит серьезный уголовный срок и конфискация имущества. Помочь может старый мамин знакомый, местный партийный руководитель Григорий Дмитриевич. Но он выдвигает неожиданное условие: помощь будет, если мама Ксении выдаст свою дочку замуж за его сына Дмитрия, студента московского художественного училища…-Доп.материалы:
- Трейлер
- Даниил Певцов-Доп. информация:
При помощи DVD Remake Pro для удобства просмотра удалены заставки, предупреждения, реклама
Исходник поделен на 2 DVD5 по 2 серии на каждом диске
Доп.материалы сохранены на обоих дисках
Навигация диска сохранена, нерабочие кнопки затерты и заблокированы
Общее сжатие - 0 %.-

Софт

DVD Remake Pro
Adobe Photoshop CS 5
MuxMan
--Возраст: 12+-Качество: 2 х DVD5
Формат: DVD-Video

Видео: PAL 16:9 (720x576) VBR, Auto Letterboxed
Аудио: Russian (Dolby AC3, 2 ch) 96 kbps
-

MediaInfo

Общее
Полное имя : F:\Раздачи на TORRENTS.ru\Ангел в сердце (4 серии из 4х) 2 х DVD5\DVD 2\VIDEO_TS\VTS_01_2.VOB
Формат : MPEG-PS
Размер файла : 1024 Мбайт
Продолжительность : 9 с. 560 мс.
Режим общего битрейта : Переменный
Общий поток : 899 Мбит/сек
Видео
Идентификатор : 224 (0xE0)
Формат : MPEG Video
Версия формата : Version 2
Профиль формата : [email protected]
Параметр BVOP формата : Да
Параметр матрицы формата : Выборочная
Продолжительность : 9 с. 560 мс.
Вид битрейта : Переменный
Битрейт : 881 Мбит/сек
Максимальный битрейт : 8100 Кбит/сек
Ширина : 720 пикселей
Высота : 576 пикселей
Соотношение сторон : 16:9
Частота кадров : 25,000 кадров/сек
Стандарт вещания : PAL
Цветовое пространство : YUV
Субдискретизация насыщенности : 4:2:0
Битовая глубина : 8 бит
Тип развёртки : Прогрессивная
Метод сжатия : С потерями
Бит/(Пиксели*Кадры) : 84.930
Размер потока : 1004 Мбайт (98%)
Аудио
Идентификатор : 189 (0xBD)-128 (0x80)
Формат : AC-3
Формат/Информация : Audio Coding 3
Расширение режима : CM (complete main)
Режим смешивания : DVD-Video
Продолжительность : 9 с. 560 мс.
Вид битрейта : Постоянный
Битрейт : 96,0 Кбит/сек
Каналы : 2 канала
Расположение каналов : Front: L R
Частота : 48,0 КГц
Битовая глубина : 16 бит
Метод сжатия : С потерями
Задержка видео : -320 мс.
Размер потока : 112 Кбайт (0%)
Меню

-

DVDInfo DVD1

Title: DVD 1
Size: 3.94 Gb ( 4 129 240,00 KBytes ) - DVD-5
Enabled regions: 1, 2, 3, 4, 5, 6, 7, 8
VTS_01 :
Play Length: 00:53:08+00:53:08+00:00:03+00:00:03+00:03:02+00:06:10
Video: PAL 16:9 (720x576) VBR, Auto Letterboxed
Audio:
Russian (Dolby AC3, 2 ch)
* Menus Information *
VIDEO_TS Menu
Video:
PAL 16:9 (720x576) VBR
Auto Letterboxed
Audio:
Not specified (Dolby AC3, 2 ch)
English Language Unit :
Title Menu
VTS_01 Menu
Video:
PAL 16:9 (720x576) VBR
Auto Letterboxed
Audio:
Not specified (Dolby AC3, 2 ch)
English Language Unit :
Root Menu
Audio #1: AC3, 2/0 (L,R) ch, 96 kbps, Delay 0 mSec

DVDInfo DVD2

Title: DVD 2
Size: 3.85 Gb ( 4 037 450,00 KBytes ) - DVD-5
Enabled regions: 1, 2, 3, 4, 5, 6, 7, 8
VTS_01 :
Play Length: 00:00:03+00:00:04+00:52:57+00:52:57+00:03:02+00:06:10
Video: PAL 16:9 (720x576) VBR, Auto Letterboxed
Audio:
Russian (Dolby AC3, 2 ch)
* Menus Information *
VIDEO_TS Menu
Video:
PAL 16:9 (720x576) VBR
Auto Letterboxed
Audio:
Not specified (Dolby AC3, 2 ch)
English Language Unit :
Title Menu
VTS_01 Menu
Video:
PAL 16:9 (720x576) VBR
Auto Letterboxed
Audio:
Not specified (Dolby AC3, 2 ch)
English Language Unit :
Root Menu
Audio #1: AC3, 2/0 (L,R) ch, 96 kbps, Delay -7 mSec

-

Скриншоты меню


-

Скриншоты сериала DVD1



Скриншоты сериала DVD2



Скриншоты доп.материалов

-Раздаю до первых 5-ти скачавших, на раздачи не возвращаюсь...-
Other forum [Profile] [PM]
Similar theme
Forum Topic Author Torrent Replies Last Post
./templates/default/images/folder_dl.gif Фантастика, фэнтези, ужасы, мистика Морган Ричард - Такеси Ковач 2, Сломанные ангелы [Сергей Краснов, (ЛИ), 2016 г., 192 kbps, MP3] Omen
1 | 0

0 | 763

1

2016-09-12 01:00
Omen Latest
./templates/default/images/folder_dl.gif Фильмы 2011-2020 Алита: Боевой ангел / Alita: Battle Angel (Роберт Родригес) [2019 г., фантастика, боевик, триллер, мелодрама, приключения, WEB-DLRip]MVO | CВ Студия kilmister777
1 | 0

0 | 912

0

2019-06-30 17:02
kilmister777 Latest
Display posts from previous:    
Reply to topic

The time now is: Today 06:23

All times are GMT + 3 Hours



You cannot post new topics in this forum
You cannot reply to topics in this forum
You cannot edit your posts in this forum
You cannot delete your posts in this forum
You cannot vote in polls in this forum
You cannot attach files in this forum
You cannot download files in this forum