Today is a free download without charge Download

Самара / Серии: 1-4 из 14 (Станислав Дремов) [2012, Мелодрама, HDTVRip 720p]

Reply to topic
 
Author
Message

Omen ®

Longevity: 9 years 1 month

Posts: 181086

Торрент-статистика

Post 14-Mar-2013 18:26

[Quote]

Самара
Год выпуска: 2012
Производство: Всемирные русские студии
Жанр: Мелодрама
Продолжительность: ~00:50:00
Субтитры: нет
Режиссёр: Станислав Дремов
В ролях: Артур Смольянинов, Ольга Арнтгольц, Леонид Громов, Полина Филоненко, Евгения Добровольская, Владимир Симонов, Юрий Батурин, Ёла Санько, Эвелина Блёданс, Луиза-Габриэла Бровина, Елена Коллегова, Александра Морозова, Оксана Семенова, Ольга Дибцева, Виктор Хатеновский, Дарина Фаддеева, Геннадий Матвеев, Серафима Низовская, Максим Фролов, Александр Кузьмин, Алиса Супрун и другие.
Описание: Главный герой сериала – врач «Скорой помощи» Олег Самарин. Друзья и коллеги зовут его Самара. Бунтарь и выскочка, он спорит с начальством, отпускает шуточки в адрес коллег и пациентов, нарушает все правила и уставы! Но Самаре все сходит с рук. Он – хирург от Бога! Каждый день Самара со своей бригадой (фельдшером Леной и водителем Михалычем) помогает людям. Пациенты Олега – это пестрая галерея характеров и судеб и порой Самаре приходится лечить не только их тела, но и души. Но и самому Самаре есть что скрывать… У Самары есть тайна, раскрытие которой грозит ему потерей любимой работы. Но, как говорится, все тайное когда-нибудь становится явным…

Качество: HDTVRip 720p
Формат: MKV
Видео кодек: H.264
Аудио кодек: AC3
Видео: x264, 1280 х 720 (16:9), 25,000 кадр/сек, ~ 3850 Кбит/сек
Аудио: AC3, 2 ch, 192 Кбит/с, 48000Hz
Сторонней рекламы нет!

MediaInfo

Общее
Уникальный идентификатор : 198644384759746380348242156292231980283 (0x95718452DBBA537AB64AE9BE660CE4FB)
Полное имя : E:\Downloads\55\Самара HDTVRip 720p\Samara.(01.seriya.iz.14).2012.HDTVRip.(720p).mkv
Формат : Matroska
Размер файла : 1,24 Гбайт
Продолжительность : 43 м.
Общий поток : 4048 Кбит/сек
Дата кодирования : UTC 2013-03-11 22:43:09
Программа кодирования : mkvmerge v4.9.1 ('Ich will') сборка от Jul 11 2011 23:53:15
Библиотека кодирования : libebml v1.2.1 + libmatroska v1.1.1
Видео
Идентификатор : 1
Формат : AVC
Формат/Информация : Advanced Video Codec
Профиль формата : [email protected]
Параметр CABAC формата : Да
Параметр ReFrames формата : 5 кадров
Идентификатор кодека : V_MPEG4/ISO/AVC
Продолжительность : 43 м.
Битрейт : 3850 Кбит/сек
Ширина : 1280 пикс.
Высота : 720 пикс.
Соотношение сторон : 16:9
Частота кадров : 25,000 кадр/сек
Цветовое пространство : YUV
Подвыборка цветности : 4:2:0
Битовая глубина : 8 бит
Тип развёртки : Прогрессивная
Бит/(Пиксели*Кадры) : 0.167
Размер потока : 1,15 Гбайт (93%)
Библиотека кодирования : x264 core 116 r2044 392e762
Настройки программы : cabac=1 / ref=5 / deblock=1:-1:-1 / analyse=0x3:0x113 / me=umh / subme=10 / psy=1 / psy_rd=0.00:0.10 / mixed_ref=1 / me_range=32 / chroma_me=1 / trellis=2 / 8x8dct=1 / cqm=0 / deadzone=21,11 / fast_pskip=0 / chroma_qp_offset=-1 / threads=12 / sliced_threads=0 / nr=0 / decimate=1 / interlaced=0 / bluray_compat=0 / constrained_intra=0 / bframes=5 / b_pyramid=2 / b_adapt=1 / b_bias=0 / direct=1 / weightb=1 / open_gop=0 / weightp=2 / keyint=250 / keyint_min=25 / scenecut=40 / intra_refresh=0 / rc_lookahead=40 / rc=abr / mbtree=1 / bitrate=3850 / ratetol=1.0 / qcomp=0.60 / qpmin=0 / qpmax=69 / qpstep=4 / ip_ratio=1.40 / aq=1:1.00
Аудио
Идентификатор : 2
Формат : AC-3
Формат/Информация : Audio Coding 3
Расширение режима : CM (complete main)
Идентификатор кодека : A_AC3
Продолжительность : 43 м.
Вид битрейта : Постоянный
Битрейт : 192 Кбит/сек
Каналы : 2 канала
Расположение каналов : Front: L R
Частота : 48,0 КГц
Битовая глубина : 16 бит
Метод сжатия : С потерями
Размер потока : 60,1 Мбайт (5%)

Внимание ! Раздача ведётся путём добавления новых серий

Внимание! Раздача ведётся путём добавления новых серий; при каждом добавлении создётся новый торрент. Чтобы начать докачку новой серии, пользователям необходимо сделать следующее:
(1) остановить скачивание,
(2) удалить старый торрент у себя из клиента (старые серии удалять не надо),
(3) скачать новый торрент и запустить его у себя в клиенте вместо старого, при этом указать клиенту путь в старую папку куда и должно происходить скачивание новых серий.
Ваш клиент при этом должен произвести хеширование (проверку) старой папки (если не производит сам - помогите ему сделать это), и будет докачивать только те серии которых у вас ещё нет. Старые серии при этом не удаляются, а продолжают раздаваться!
Eсли вы уже удалили старые серии, то предотвратить повторную закачку старых серий можно, отжав галочку в соответсвующих местах при запуске нового торрента. По возможности, желательно не удалять старые серии как можно дольше чтобы релизёр не столько продолжал раздавать старые серии, а смог сконцентрироваться на новых.
ВНИМАНИЕ! ТОРРЕНТ ПЕРЕЗАЛИТ! ДОБАВЛЕНА 4-ая СЕРИЯ!

Скриншоты

Other forum [Profile] [PM]
Display posts from previous:    
Reply to topic

The time now is: Today 06:00

All times are GMT + 3 Hours



You cannot post new topics in this forum
You cannot reply to topics in this forum
You cannot edit your posts in this forum
You cannot delete your posts in this forum
You cannot vote in polls in this forum
You cannot attach files in this forum
You cannot download files in this forum