Today is a free download without charge Download

Сумерки. Сага. Рассвет: Часть 2 / The Twilight Saga: Breaking Dawn - Part 2 (Билл Кондон / Bill Condon) [2012, США, фэнтези, драма, мелодрама, приключения, BDRemux 1080p] Dub + Ukr + Original + subs (Rus: Full, comm; Eng; full, forced)

Reply to topic
 
Author
Message

Omen ®

Longevity: 8 years 5 months

Posts: 181087

Торрент-статистика

Post 14-Mar-2013 18:26

[Quote]

Сумерки. Сага. Рассвет: Часть 2 / The Twilight Saga: Breaking Dawn - Part 2- Год выпуска: 2012
Страна: США
Жанр: фэнтези, драма, мелодрама, приключения
Продолжительность: 01:55:13-Перевод: Профессиональный (полное дублирование) Лицензия
Оригинальная звуковая дорожка: English
Cубтитры: Русские (полные, комментарии), английские (полные, форсированные)-Дата мировой премьеры: 14 ноября 2012
Дата российской премьеры: 15 ноября 2012, «West»
Дата выхода DVD релиза: 5 марта 2013, «West Video»
Дата выхода Blu-Ray релиза: 5 марта 2013, «West Video»-Режиссер: Билл Кондон / Bill Condon
В ролях: Кристен Стюарт, Роберт Паттинсон, Тэйлор Лотнер, Питер Фачинелли, Элизабет Ризер, Эшли Грин, Джексон Рэтбоун, Келлан Латс, Никки Ридб, Билли Бёрк- 
О фильме: Белла, став вампиром, постепенно свыкается со своей новой природой. В этом ей помогают Эдвард и остальные члены семьи Калленов. К тому же теперь у Беллы есть дочь Ренесми и вечность впереди. Джейкоб, запечатленный с Ренесми, становится для девочки другом и наставником. Ненадолго для героев наступают спокойные, счастливые дни.- 
 
Сэмпл
Релиз:
Source: The.Twilight.Saga.Breaking.Dawn.Part.2.2012.BluRay.1080p.DTS-HD.MA7.1-CHDBits
Видео: AVC, 1920x1080 at 23.976 fps, ~27000 kbps avg
Аудио 1: Russian: 48 kHz, DTS, 3/2 (L,C,R,l,r) + LFE ch, ~755.00.00 kbps avg |Дубляж|
Аудио 2: Ukrainian: 48 kHz, AC3, 3/2 (L,C,R,l,r) + LFE ch, ~384.00.00 kbps avg |Дубляж|
Аудио 3: English: English: 48 kHz, DTS-HA MA, 7/1 (L,C,R,l,r) + LFE ch, ~3116.00 kbps avg
Аудио 4: English: 48 kHz, AC3, 2/0 (L,R) ch, ~75.00 kbps avg |Commentary 1|
Аудио 5: English: 48 kHz, AAC, 2/0 (L,R) ch, ~34.00 kbps avg |Commentary 2|

MediaInfo

The.Twilight.Saga.Breaking.Dawn. Part 2.2012.BluRay.1080p.DTS-HD.MA5.1.Rus.Ukr.Eng.Subs-playBD
Format : Matroska
File size : 24.5 GiB
Duration : 1h 55mn
Overall bit rate : 30.4 Mbps
Movie name : IRONCLUB
Encoded date : UTC 2013-03-12 19:41:41
Writing application : mkvmerge v4.9.1 ('Ich will') built on Jul 11 2011 23:53:15
Writing library : libebml v1.2.1 + libmatroska v1.1.1
Video
ID : 1
Format : AVC
Format/Info : Advanced Video Codec
Format profile : [email protected]
Format settings, CABAC : Yes
Format settings, ReFrames : 4 frames
Codec ID : V_MPEG4/ISO/AVC
Duration : 1h 55mn
Bit rate mode : Variable
Maximum bit rate : 37.0 Mbps
Width : 1 920 pixels
Height : 1 080 pixels
Display aspect ratio : 16:9
Frame rate : 23.976 fps
Color space : YUV
Chroma subsampling : 4:2:0
Bit depth : 8 bits
Scan type : Progressive
Audio #1
ID : 2
Format : DTS
Format/Info : Digital Theater Systems
Codec ID : A_DTS
Duration : 1h 55mn
Bit rate mode : Constant
Bit rate : 755 Kbps
Channel(s) : 6 channels
Channel positions : Front: L C R, Side: L R, LFE
Sampling rate : 48.0 KHz
Bit depth : 24 bits
Compression mode : Lossy
Stream size : 622 MiB (2%)
Title : DTS 5.1 @ 768 kbps - Dub, R5
Language : Russian
Audio #2
ID : 3
Format : AC-3
Format/Info : Audio Coding 3
Mode extension : CM (complete main)
Codec ID : A_AC3
Duration : 1h 55mn
Bit rate mode : Constant
Bit rate : 384 Kbps
Channel(s) : 6 channels
Channel positions : Front: L C R, Side: L R, LFE
Sampling rate : 48.0 KHz
Bit depth : 16 bits
Compression mode : Lossy
Stream size : 316 MiB (1%)
Title : DD 5.1 @ 384 kbps - Dub, R5
Language : Ukrainian
Audio #3
ID : 4
Format : DTS
Format/Info : Digital Theater Systems
Format profile : MA / Core
Codec ID : A_DTS
Duration : 1h 55mn
Bit rate mode : Variable
Bit rate : 1 606 Kbps / 1 510 Kbps
Channel(s) : 8 channels / 6 channels
Channel positions : Front: L C R, Side: L R, Back: L R, LFE / Front: L C R, Side: L R, LFE
Sampling rate : 48.0 KHz
Bit depth : 24 bits
Compression mode : Lossless / Lossy
Language : English
Audio #4
ID : 5
Format : AAC
Format/Info : Advanced Audio Codec
Format profile : HE-AAC / LC
Codec ID : A_AAC
Duration : 1h 55mn
Channel(s) : 2 channels
Channel positions : Front: L R
Sampling rate : 48.0 KHz / 24.0 KHz
Compression mode : Lossy
Delay relative to video : 31ms
Title : Commentary 1 AAC 2.0 @ 75 Kbps (-q=0.3)
Language : English
Audio #5
ID : 6
Format : AAC
Format/Info : Advanced Audio Codec
Format profile : HE-AAC / LC
Codec ID : A_AAC
Duration : 1h 55mn
Channel(s) : 2 channels
Channel positions : Front: L R
Sampling rate : 48.0 KHz / 24.0 KHz
Compression mode : Lossy
Delay relative to video : 31ms
Title : Commentary 2 AAC 2.0 @ 34 Kbps (-q=0.3)
Language : English
Text #1
ID : 7
Format : UTF-8
Codec ID : S_TEXT/UTF8
Codec ID/Info : UTF-8 Plain Text
Language : Romanian
Text #2
ID : 8
Format : UTF-8
Codec ID : S_TEXT/UTF8
Codec ID/Info : UTF-8 Plain Text
Title : Full R5
Language : Russian
Text #3
ID : 9
Format : UTF-8
Codec ID : S_TEXT/UTF8
Codec ID/Info : UTF-8 Plain Text
Title : Comentary
Language : Russian
Text #4
ID : 10
Format : UTF-8
Codec ID : S_TEXT/UTF8
Codec ID/Info : UTF-8 Plain Text
Title : Forced
Language : English
Text #5
ID : 11
Format : UTF-8
Codec ID : S_TEXT/UTF8
Codec ID/Info : UTF-8 Plain Text
Language : English
Menu
00:00:00.000 : :00:00:00.000
00:08:04.067 : :00:08:04.067
00:13:35.398 : :00:13:35.398
00:18:36.073 : :00:18:36.073
00:22:11.080 : :00:22:11.080
00:30:03.343 : :00:30:03.343
00:38:06.159 : :00:38:06.159
00:44:23.619 : :00:44:23.619
00:48:35.830 : :00:48:35.830
00:52:31.440 : :00:52:31.440
00:58:11.947 : :00:58:11.947
01:02:10.352 : :01:02:10.352
01:08:26.060 : :01:08:26.060
01:11:38.503 : :01:11:38.503
01:20:35.456 : :01:20:35.456
01:24:57.509 : :01:24:57.509
01:32:17.157 : :01:32:17.157
01:38:08.966 : :01:38:08.966

Скриншоты

Other forum [Profile] [PM]

Dracula

Longevity: 7 years 5 months

Posts: 11218

Торрент-статистика

Post 30-Mar-2013 09:12 (after 15 days)

Топик был перенесен из форума Зарубежное кино (HD Video) в форум Зарубежное кино


Delia
 
Display posts from previous:    
Reply to topic

The time now is: Today 01:56

All times are GMT + 3 Hours



You cannot post new topics in this forum
You cannot reply to topics in this forum
You cannot edit your posts in this forum
You cannot delete your posts in this forum
You cannot vote in polls in this forum
You cannot attach files in this forum
You cannot download files in this forum