Today is a free download without charge Download

Пастушка и Трубочист (Лев Атаманов) [1965 г., мультфильм, экранизация, DVB]

Reply to topic
 
Author
Message

Omen ®

Longevity: 7 years 11 months

Posts: 181087

Торрент-статистика

Post 14-Mar-2013 18:26

[Quote]

Пастушка и Трубочист
Жанр: мультфильм, экранизация
Год выпуска: 1962
Продолжительность: 00:28:47
Режиссёр: Лев Атаманов
Описание: История двух фарфоровых фигурок, полюбивших друг друга и решивших бежать во внешний мир, поскольку "дедушка" пастушки был против их союза и хотел отдать внучку замуж за богатого...
Рассказчиком истории выступает Оле-Лукойе, что является в некотором роде традицией отечественных экранизаций сказок Андерсена.
В мультфильме добавлена побочная сюжетная ветка — о романе двух мышат, девочки из приличной мышиной семьи и мышонка-оборванца; их судьба сложилась, видимо, более счастливо, чем судьба Пастушки и Трубочист
Доп. информация: Экранизация одноимённой сказки Г.Х. Андерсена

Релиз спутникового канала: "Карусель"
Качество видео: DVB
Формат видео: MPEG-PS
Видео: MPEG2 Video, 720x576, 25 fps, 3500 kbps
Аудио: MPEG Audio, 2 сh, 48 kHz, 192 kbps

MediaInfo

General
Complete name : D:\Пастушка и трубочист. (1965)_DVB by SLuMeP.mpg
Format : MPEG-PS
File size : 777 MiB
Duration : 28mn 47s
Overall bit rate : 3 771 Kbps
Video
ID : 224 (0xE0)
Format : MPEG Video
Format version : Version 2
Format profile : [email protected]
Format settings, BVOP : Yes
Format settings, Matrix : Default
Duration : 28mn 47s
Bit rate mode : Variable
Bit rate : 3 504 Kbps
Nominal bit rate : 5 000 Kbps
Width : 720 pixels
Height : 576 pixels
Display aspect ratio : 4:3
Frame rate : 25.000 fps
Standard : PAL
Color space : YUV
Chroma subsampling : 4:2:0
Bit depth : 8 bits
Scan type : Interlaced
Scan order : Top Field First
Bits/(Pixel*Frame) : 0.338
Stream size : 722 MiB (93%)
Audio
ID : 192 (0xC0)
Format : MPEG Audio
Format version : Version 1
Format profile : Layer 2
Duration : 28mn 47s
Bit rate mode : Constant
Bit rate : 192 Kbps
Channel(s) : 2 channels
Sampling rate : 48.0 KHz
Stream size : 39.5 MiB (5%)

Скриншоты

Other forum [Profile] [PM]
Display posts from previous:    
Reply to topic

The time now is: Today 19:40

All times are GMT + 3 Hours



You cannot post new topics in this forum
You cannot reply to topics in this forum
You cannot edit your posts in this forum
You cannot delete your posts in this forum
You cannot vote in polls in this forum
You cannot attach files in this forum
You cannot download files in this forum