Today is a free download without charge Download

Ангел в сердце / Серии: 1-4 из 4 (Елена Николаева) [2012, Россия, мелодрама, DVD9] R5 Original Rus [«Русское счастье»]

Reply to topic
 
Author
Message

Omen ®

Longevity: 9 years

Posts: 181086

Торрент-статистика

Post 14-Mar-2013 10:10

[Quote]

-Ангел в сердце -Страна: Россия
Студия: Amalgama Studio
Жанр: мелодрама
Год выпуска: 2012
Российская премьера: 16 января 2013
Дата выхода DVD: 14 марта 2013, «Русское счастье»
Продолжительность: 208 мин.
Перевод: Оригинал [Лицензия]
Cубтитры: нет
Оригинальная аудиодорожка: русский-Режиссер: Елена Николаева-В ролях: Даниил Певцов, Дмитрий Певцов, Анна Михайловская, Ольга Дроздова, Александр Солдаткин, Сергей Юшкевич, Катерина Шпица, Валерий Баринов, Татьяна Догилева, Борис Каморзин-Описание: Лето 1985 года. Ксения и Петр заканчивают школу в приморском городе. Они любят друг друга с первого класса. И теперь, когда впереди взрослая жизнь, серьезно думают о свадьбе. Но в семье Ксении случается несчастье — папа, начальник строительного треста, замешан в деле о финансовых махинациях, и ему грозит серьезный уголовный срок и конфискация имущества. Помочь может старый мамин знакомый, местный партийный руководитель Григорий Дмитриевич. Но он выдвигает неожиданное условие: помощь будет, если мама Ксении выдаст свою дочку замуж за его сына Дмитрия, студента московского художественного училища…-Бонусы: Трейлер, Даниил Певцов- -Релиз группы: -Качество: DVD9 R5
Формат: DVD-Video
Видео кодек: MPEG2
Аудио кодек: AC3
Видео: PAL 16:9 (720x576(0.465)) MPEG Video, 25,000 кадр/сек, 4826 Кбит/сек
Аудио: Russian (Dolby AC3, 2 ch) 96,0 Кбит/сек, 48,0 КГц--

DVDInfo

Title: Angel.v.serdce.2012.DVD9
Size: 7.68 Gb ( 8 055 038,00 KBytes ) - DVD-9
Enabled regions: 1, 2, 3, 4, 5, 6, 7, 8
VTS_01 :
Play Length: 00:53:08+00:53:08+00:52:57+00:52:57+00:03:02+00:06:10
Video: PAL 16:9 (720x576) VBR, Auto Letterboxed
Audio:
English (Dolby AC3, 2 ch)
* Menus Information *
VIDEO_TS Menu
Video:
PAL 16:9 (720x576) VBR
Auto Letterboxed
Audio:
Not specified (Dolby AC3, 2 ch)
English Language Unit :
Title Menu
VTS_01 Menu
Video:
PAL 16:9 (720x576) VBR
Auto Letterboxed
Audio:
Not specified (Dolby AC3, 2 ch)
English Language Unit :
Root Menu

MediaInfo

Общее
Полное имя : J:\Новинки 2013\Angel.v.serdce.2012.DVD9\VIDEO_TS\VTS_01_3.VOB
Формат : MPEG-PS
Размер файла : 1024 Мбайт
Продолжительность : 28 м.
Режим общего битрейта : Переменный
Общий поток : 5022 Кбит/сек
Видео
Идентификатор : 224 (0xE0)
Формат : MPEG Video
Версия формата : Version 2
Профиль формата : [email protected]
Параметр BVOP формата : Да
Параметр матрицы формата : Выборочная
Параметр GOP формата : Variable
Продолжительность : 28 м.
Вид битрейта : Переменный
Битрейт : 4826 Кбит/сек
Максимальный битрейт : 8100 Кбит/сек
Ширина : 720 пикселей
Высота : 576 пикселей
Соотношение сторон : 16:9
Частота кадров : 25,000 кадров/сек
Стандарт вещания : PAL
Цветовое пространство : YUV
Субдискретизация насыщенности : 4:2:0
Битовая глубина : 8 бит
Тип развёртки : Прогрессивная
Метод сжатия : С потерями
Бит/(Пиксели*Кадры) : 0.465
Размер потока : 984 Мбайт (96%)
Аудио
Идентификатор : 189 (0xBD)-128 (0x80)
Формат : AC-3
Формат/Информация : Audio Coding 3
Расширение режима : CM (complete main)
Параметр Endianness формата : Big
Режим смешивания : DVD-Video
Продолжительность : 28 м.
Вид битрейта : Постоянный
Битрейт : 96,0 Кбит/сек
Каналы : 2 канала
Расположение каналов : Front: L R
Частота : 48,0 КГц
Битовая глубина : 16 бит
Метод сжатия : С потерями
Задержка видео : -488 мс.
Размер потока : 19,6 Мбайт (2%)

Скриншоты меню

Скриншоты сериала

Скриншоты доп. материалов

--
Other forum [Profile] [PM]
Display posts from previous:    
Reply to topic

The time now is: Today 18:20

All times are GMT + 3 Hours



You cannot post new topics in this forum
You cannot reply to topics in this forum
You cannot edit your posts in this forum
You cannot delete your posts in this forum
You cannot vote in polls in this forum
You cannot attach files in this forum
You cannot download files in this forum