Today is a free download without charge Download

Уравнение любви / Уравнение со всеми (серии 1-4 из 8) (2013) DVB (обновляемая)

Reply to topic
 
Author
Message

UndegraundMen ®

Longevity: 8 years 9 months

Posts: 25145

Торрент-статистика

Post 14-Mar-2013 03:55

[Quote]

Уравнение любви / Уравнение со всеми (серии 1-4 из 8) (2013) DVB (обновляемая)- Русское название: Уравнение любви / Уравнение со всеми
Производство: "Русские золотые серии"
Год выпуска: 2013
Жанр: Мелодрама
Режиссер: Рауф Кубаев
Актеры: Наталия Антонова, Александр Робак, Дмитрий Муляр, Екатерина Волкова, Александр Зельский, Евгения Туркова, Иван Соловьев, Анастасия Пронина, Галина Петрова, Вадим Андреев, и другие.
Описание фильма:
Размеренная, устоявшаяся жизнь Татьяны Сергеевой - заботливой жены и мамы, работающей воспитательницей в детском саду, резко меняется. Ее сын Денис сбивает на дороге девушку и уезжает с места происшествия. Денис не хочет садиться в тюрьму: у него скоро свадьба и защита диплома. Таня принимает непростое решение и берет вину сына на себя. И теперь и ее жизнь, и жизнь ее близких подвергается нелегким испытаниям – испытаниям верности, любви, дружбы. Теперь каждый должен доказать, способен ли он остаться человеком в чрезвычайных обстоятельствах.
kinopoisk
Продолжительность: ~ 00:45:00
Качество видео: DVBRip
Видеокодек: MPEG-2
Битрейт видео: ~5800 Kbps
Размер кадра: 720x576
Битрейт аудио: 2 ch, 192 Kbps

MediaInfo:

Код:
Общее
Полное имя : E:\DOWNLOADS\Уравнение любви (2013) DVB\Уравнение любви - 1 серия.mpg
Формат : MPEG-PS
Размер файла : 2,05 Гбайт
Продолжительность : 47 м.
Режим общего битрейта : Переменный
Общий поток : 6119 Кбит/сек
Видео
Идентификатор : 224 (0xE0)
Формат : MPEG Video
Версия формата : Version 2
Профиль формата : [email protected]
Параметр BVOP формата : Да
Параметр матрицы формата : Выборочная
Параметр GOP формата : M=3, N=24
Продолжительность : 47 м.
Вид битрейта : Переменный
Битрейт : 5805 Кбит/сек
Максимальный битрейт : 15,0 Мбит/сек
Ширина : 720 пикселей
Высота : 576 пикселей
Соотношение сторон : 16:9
Частота кадров : 25,000 кадров/сек
Стандарт вещания : PAL
Цветовое пространство : YUV
Субдискретизация насыщенности : 4:2:0
Битовая глубина : 8 бит
Тип развёртки : Чересстрочная
Порядок развёртки : Верхнее поле первое
Метод сжатия : С потерями
Бит/(Пиксели*Кадры) : 0.560
TimeCode_FirstFrame : 00:00:00:00
TimeCode_Source : Group of pictures header
Размер потока : 1,95 Гбайт (95%)
Аудио
Идентификатор : 192 (0xC0)
Формат : MPEG Audio
Версия формата : Version 1
Профиль формата : Layer 2
Продолжительность : 47 м.
Вид битрейта : Постоянный
Битрейт : 192 Кбит/сек
Каналы : 2 канала
Частота : 48,0 КГц
Метод сжатия : С потерями
Задержка видео : 1 мс.
Размер потока : 65,9 Мбайт (3%)

Описание обновления торрента

Внимание! Раздача ведётся путём добавления новых серий; при каждом добавлении создётся новый торрент. Чтобы начать докачку новой серии, пользователям необходимо сделать следующее:
1. Остановить скачивание.
2. Удалить старый торрент у себя из клиента (старые серии удалять не надо).
3. Скачать новый торрент и запустить его у себя в клиенте вместо старого, при этом указать клиенту путь в старую папку куда и должно происходить скачивание новых серий.
Ваш клиент при этом должен произвести хеширование (проверку) старой папки (если не производит сам - помогите ему сделать это), и будет докачивать только те серии которых у вас ещё нет. Старые серии при этом не удаляются, а продолжают раздаваться!
Eсли вы уже удалили старые серии, то предотвратить повторную закачку старых серий можно, отжав галочку в соответсвующих местах при запуске нового торрента. По возможности, желательно не удалять старые серии как можно дольше чтобы релизёр не столько продолжал раздавать старые серии, а смог сконцентрироваться на новых.
Скриншоты:
Other forum [Profile] [PM]
Display posts from previous:    
Reply to topic

The time now is: Today 06:23

All times are GMT + 3 Hours



You cannot post new topics in this forum
You cannot reply to topics in this forum
You cannot edit your posts in this forum
You cannot delete your posts in this forum
You cannot vote in polls in this forum
You cannot attach files in this forum
You cannot download files in this forum