Today is a free download without charge Download

Уравнение любви/Уравнение со всеми (2012) HDTVRip [1-4(8)] (Обновляемая)

Reply to topic
 
Author
Message

UndegraundMen ®

Longevity: 8 years 9 months

Posts: 25145

Торрент-статистика

Post 14-Mar-2013 03:55

[Quote]

Уравнение любви/Уравнение со всеми (2012) HDTVRip [1-4(8)]- Русское название: Уравнение любви/Уравнение со всеми
Год выпуска: 2012
Жанр: Мелодрама
kinopoisk
Режиссер: Рауф Кубаев
Актеры: Наталия Антонова, Дмитрий Муляр, Екатерина Волкова, Галина Петрова, Вадим Андреев, Иван Соловьев (II), Александр Робак, Павел Юлку, Евгения Туркова, Анастасия Пронина, Александр Зельский, Анна Бачалова
Описание фильма:
Всю свою жизнь Татьяна посвятила мужу и сыну Денису. Именно поэтому, когда накануне своей свадьбы сын, выпив, садится за руль и сбивает человека, Татьяна, не задумываясь, берет его вину на себя и по приговору суда оказывается в колонии-поселении. Муж и сын Татьяны воспринимают ее поступок как должное. Свадьба Дениса проходит без Татьяны. Непривычная к тяжелому физическому труду и барачному быту, в тюрьме Татьяна становится объектом насмешек и издевательств. Выжить Татьяне помогает только дружеская поддержка Аркадия – единственного осужденного, кто решился встать на ее защиту. Муж и сын Татьяны озабочены только своими бытовыми проблемами и, казалось, забыли о матери... А Татьяна начинает понимать, что не хочет возвращаться домой, боится снова встретиться с эгоизмом мужа и инфантильностью сына, и… уже не представляет свою жизнь без Аркадия. Но выбор Татьяне придется сделать раньше срока - неожиданно Татьяна узнает о своем условно-досрочном освобождении…
Продолжительность: Серия ~00:47:00
Качество видео: HDTVRip
Видео: XviD, 25 fps, 720x400, 1571 Кбит/с
Аудио: АС3, 48 kHz, 2ch, 192 Кбит/с

Внимание! Раздача ведётся путём добавления новых серий!!!

Внимание! Раздача ведётся путём добавления новых серий; при каждом добавлении создаётся новый торрент. Чтобы начать докачку новой серии, пользователям необходимо сделать следующее:
(1) остановить скачивание,
(2) удалить старый торрент у себя из клиента (старые серии удалять не надо),
(3) скачать новый торрент и запустить его у себя в клиенте вместо старого, при этом указать клиенту путь в старую папку куда и должно происходить скачивание новых серий.
Ваш клиент при этом должен произвести хеширование (проверку) старой папки (если не производит сам - помогите ему сделать это), и будет докачивать только те серии которых у вас ещё нет. Старые серии при этом не удаляются, а продолжают раздаваться!
Если вы уже удалили старые серии, то предотвратить повторную закачку старых серий можно, отжав галочку в соответствующих местах при запуске нового торрента.

MI

Общее
Полное имя : E:\Закачки\1\Uravnenie.lyubvi..2013.XviD.HDTVRip\Uravnenie.lyubvi.01.seriya..2013.XviD.HDTVRip.avi
Формат : AVI
Формат/Информация : Audio Video Interleave
Размер файла : 601 Мбайт
Продолжительность : 47 м.
Общий поток : 1774 Кбит/сек
Программа кодирования : VirtualDubMod 1.5.10.3 | www.virtualdub-fr.org || (build 2550/release)
Библиотека кодирования : VirtualDubMod build 2550/release
Видео
Идентификатор : 0
Формат : MPEG-4 Visual
Профиль формата : Advanced [email protected]
Параметр BVOP формата : 1
Параметр QPel формата : Нет
Параметр GMC формата : Без точки перехода
Параметр матрицы формата : Default (H.263)
Идентификатор кодека : XVID
Идентификатор кодека/Подсказка : XviD
Продолжительность : 47 м.
Битрейт : 1572 Кбит/сек
Ширина : 720 пикселей
Высота : 400 пикселей
Соотношение сторон : 16:9
Частота кадров : 25,000 кадров/сек
Цветовое пространство : YUV
Субдискретизация насыщенности : 4:2:0
Битовая глубина : 8 бит
Тип развёртки : Прогрессивная
Метод сжатия : С потерями
Бит/(Пиксели*Кадры) : 0.218
Размер потока : 532 Мбайт (89%)
Библиотека кодирования : XviD 1.2.1 (UTC 2008-12-04)
Аудио
Идентификатор : 1
Формат : AC-3
Формат/Информация : Audio Coding 3
Расширение режима : CM (complete main)
Параметр Endianness формата : Big
Идентификатор кодека : 2000
Продолжительность : 47 м.
Вид битрейта : Постоянный
Битрейт : 192 Кбит/сек
Каналы : 2 канала
Расположение каналов : Front: L R
Частота : 48,0 КГц
Битовая глубина : 16 бит
Метод сжатия : С потерями
Размер потока : 65,0 Мбайт (11%)
Выравнивание : Разделение по промежуткам
Продолжительность промежутка : 40 мс. (1,00 видеокадр)
Время предзагрузки промежутка : 500 мс.
Скриншоты:
       
       
Other forum [Profile] [PM]
Display posts from previous:    
Reply to topic

The time now is: Today 06:22

All times are GMT + 3 Hours



You cannot post new topics in this forum
You cannot reply to topics in this forum
You cannot edit your posts in this forum
You cannot delete your posts in this forum
You cannot vote in polls in this forum
You cannot attach files in this forum
You cannot download files in this forum