Today is a free download without charge Download

Костер на снегу / Серии: 1-4 из 4 (Сергей Краснов) [2012, Мелодрама, HDTVRip 720p]

Reply to topic
 
Author
Message

Omen ®

Longevity: 9 years

Posts: 181086

Торрент-статистика

Post 13-Mar-2013 21:52

[Quote]

Костер на снегу
Год выпуска: 2012
Производство: Кинокомпания Русское
Жанр: Мелодрама
Продолжительность: ~00:45:00
Субтитры: нет
Режиссёр: Сергей Краснов
В ролях: Дарья Щербакова, Александр Голубев, Андрей Чадов, Надежда Маркина, Ирина Сидорова, Михаил Негин, Лариса Домаскина, Мария Ситко, Елена Мельникова, Игорь Хрипунов, Александр Носков, Дэник Неверов, Анастасия Стежко, Андрей Курилов, Геннадий Христенко, Татьяна Ухарова, Любава Аристархова, Екатерина Бурылева, Александр Никольский (II), Олег Билик, Алла Иванцова, Ксения Ильясова, Елена Ветрова, Виктория Таранец, Владимир Дубровский (II)
Описание: Настя, добрая и наивная девушка, возвращается после интерната домой в родную деревню. Ее семья живет в нищете, но Настю не пугают трудности, ведь она прекрасный маляр и работа для нее всегда найдется. Однако очень быстро девушка понимает, что лишняя в своем доме: вечно пьяный отчим не рад новому жильцу и мать стала совсем чужой.
Неожиданно судьба поворачивается к Насте лицом: сын губернатора Павел, приехавший в деревушку на конкурс песни, очарован девушкой, и у них быстро завязывается роман. Но когда Настя обнаруживает, что беременна, оказывается, что у Павла совсем другие планы на жизнь.

Качество: HDTVRip 720p
Формат: MKV
Видео кодек: H.264
Аудио кодек: MPEG Audio
Видео: x264, 1280 х 720 (16:9), 25,000 кадр/сек, ~ 2797 Кбит/сек
Аудио: MPEG Audio 48000Hz stereo 192 Кбит/сек
Сторонней рекламы нет!

MediaInfo

ОбщееУникальный идентификатор : 194988341288440524888079130178752557697 (0x92B16376A9570D0896ADDB5BBDEF3281)Полное имя : G:\ФИЛЬМЫ\КОСТЕР НА СНЕГУ HDTVRip 720p\Костер на снегу 01_серия_HDTVRip 720 p_by_Серый1779.mkvФормат : MatroskaВерсия формата : Version 2Размер файла : 1,85 ГбайтПродолжительность : 1 ч. 28 м.Общий поток : 2992 Кбит/секДата кодирования : UTC 2013-03-07 01:37:11Программа кодирования : mkvmerge v5.6.0 ('Kenya Kane') built on Jun 29 2012 15:01:44Библиотека кодирования : libebml v1.2.3 + libmatroska v1.3.0
ВидеоИдентификатор : 1Формат : AVCФормат/Информация : Advanced Video CodecПрофиль формата : [email protected]Параметр CABAC формата : ДаПараметр ReFrames формата : 9 кадровИдентификатор кодека : V_MPEG4/ISO/AVCПродолжительность : 1 ч. 28 м.Битрейт : 2740 Кбит/секШирина : 1280 пикселейВысота : 720 пикселейСоотношение сторон : 16:9Режим частоты кадров : ПостоянныйЧастота кадров : 25,000 кадров/секЦветовое пространство : YUVСубдискретизация насыщенности : 4:2:0Битовая глубина : 8 битТип развёртки : ПрогрессивнаяБит/(Пиксели*Кадры) : 0.119Размер потока : 1,69 Гбайт (92%)Библиотека кодирования : x264 core 125 r2200 999b753Настройки программы : cabac=1 / ref=9 / deblock=1:-2:-2 / analyse=0x3:0x133 / me=umh / subme=9 / psy=1 / psy_rd=1.10:0.15 / mixed_ref=1 / me_range=32 / chroma_me=1 / trellis=2 / 8x8dct=1 / cqm=0 / deadzone=21,11 / fast_pskip=0 / chroma_qp_offset=-3 / threads=3 / lookahead_threads=1 / sliced_threads=0 / nr=0 / decimate=1 / interlaced=0 / bluray_compat=0 / constrained_intra=0 / bframes=9 / b_pyramid=2 / b_adapt=2 / b_bias=0 / direct=1 / weightb=1 / open_gop=0 / weightp=2 / keyint=250 / keyint_min=25 / scenecut=40 / intra_refresh=0 / rc=crf / mbtree=0 / crf=20.0 / qcomp=0.60 / qpmin=0 / qpmax=69 / qpstep=4 / ip_ratio=1.40 / pb_ratio=1.30 / aq=2:0.80Default : ДаForced : НетОсновные цвета : BT.601 PALХарактеристики трансфера : BT.470 System B, BT.470 System GКоэффициенты матрицы : BT.601
АудиоИдентификатор : 2Формат : MPEG AudioВерсия формата : Version 1Профиль формата : Layer 2Идентификатор кодека : A_MPEG/L2Идентификатор кодека/Подсказка : MP2Продолжительность : 1 ч. 28 м.Вид битрейта : ПостоянныйБитрейт : 192 Кбит/секКаналы : 2 каналаЧастота : 48,0 КГцМетод сжатия : С потерямиРазмер потока : 121 Мбайт (6%)Default : ДаForced : Нет

h264 log

x264 [info]: frame I:787 Avg QP:18.09 size: 83935x264 [info]: frame P:33367 Avg QP:19.69 size: 29658x264 [info]: frame B:98509 Avg QP:21.94 size: 8123x264 [info]: consecutive B-frames: 1.6% 1.7% 6.9% 67.6% 12.2% 9.3% 0.4% 0.2% 0.0% 0.0%x264 [info]: mb I I16..4: 7.9% 78.4% 13.7%x264 [info]: mb P I16..4: 1.8% 11.1% 1.2% P16..4: 51.2% 16.3% 12.8% 0.5% 0.2% skip: 4.8%x264 [info]: mb B I16..4: 0.2% 1.0% 0.1% B16..8: 36.9% 6.2% 1.5% direct: 5.8% skip:48.3% L0:36.2% L1:49.4% BI:14.4%x264 [info]: 8x8 transform intra:78.3% inter:60.0%x264 [info]: coded y,uvDC,uvAC intra: 80.8% 80.5% 39.4% inter: 18.5% 23.1% 0.7%x264 [info]: i16 v,h,dc,p: 21% 18% 5% 56%x264 [info]: i8 v,h,dc,ddl,ddr,vr,hd,vl,hu: 16% 12% 4% 7% 11% 13% 12% 12% 12%x264 [info]: i4 v,h,dc,ddl,ddr,vr,hd,vl,hu: 14% 13% 2% 7% 13% 14% 13% 11% 12%x264 [info]: i8c dc,h,v,p: 30% 25% 25% 19%x264 [info]: Weighted P-Frames: Y:1.9% UV:0.9%x264 [info]: ref P L0: 54.3% 13.0% 18.0% 3.8% 3.5% 2.3% 2.3% 1.2% 1.4% 0.1% 0.0%x264 [info]: ref B L0: 89.4% 6.8% 1.6% 0.8% 0.5% 0.5% 0.3% 0.2%x264 [info]: ref B L1: 97.5% 2.5%x264 [info]: kb/s:2797.89
x264 [total]: encoded 132663 frames, 2.41 fps, 2797.89 kb/s
Отдельное спасибо }{oтт@бь)ч за предоставление исходника.

Внимание ! Раздача ведётся путём добавления новых серий

Внимание! Раздача ведётся путём добавления новых серий; при каждом добавлении создётся новый торрент. Чтобы начать докачку новой серии, пользователям необходимо сделать следующее:
(1) остановить скачивание,
(2) удалить старый торрент у себя из клиента (старые серии удалять не надо),
(3) скачать новый торрент и запустить его у себя в клиенте вместо старого, при этом указать клиенту путь в старую папку куда и должно происходить скачивание новых серий.
Ваш клиент при этом должен произвести хеширование (проверку) старой папки (если не производит сам - помогите ему сделать это), и будет докачивать только те серии которых у вас ещё нет. Старые серии при этом не удаляются, а продолжают раздаваться!
Eсли вы уже удалили старые серии, то предотвратить повторную закачку старых серий можно, отжав галочку в соответсвующих местах при запуске нового торрента. По возможности, желательно не удалять старые серии как можно дольше чтобы релизёр не столько продолжал раздавать старые серии, а смог сконцентрироваться на новых.
ВНИМАНИЕ! ТОРРЕНТ ПЕРЕЗАЛИТ! ДОБАВЛЕНА 4-ая СЕРИИ!

Скриншоты

Other forum [Profile] [PM]
Display posts from previous:    
Reply to topic

The time now is: Today 17:25

All times are GMT + 3 Hours



You cannot post new topics in this forum
You cannot reply to topics in this forum
You cannot edit your posts in this forum
You cannot delete your posts in this forum
You cannot vote in polls in this forum
You cannot attach files in this forum
You cannot download files in this forum